Правила форума

  • В этом разделе создание новых тем Запрещено.
  • Для создания новых тем пользуйтесь Корневым разделом DVD и HD фильмы.
Начать новую темуОтветить на тему  [ 1 сообщение ] 
Торрент файл
Размер: 10.79 GB • Зарегистрирован: 5 лет 7 месяцев • Статус: Проверено
Скачан: 36 раз • Желающих скачать: 0 • Поблагодарили: 16 раз
 Раздают: 0  |  0 KB/s  ]   Качают: 1  |  0 KB/s  ] 
 Полного источника не было 1 год 6 месяцев 
Сообщения
 Добавлено: 2012-11-25 15:10
Инквизитор
Аватара пользователя
Стаж: 8 лет 9 месяцев
Сообщений: 3753
Спасибок: 28361
Лайков: 9
Изображение

Спеши любить / A Walk to Remember


«Наша любовь, как ветер, ее не видишь, но чувствуешь...»

Год выпуска: 2002
Страна: США
Жанр: драма, мелодрама
Продолжительность: 01:42:03
Перевод: Профессиональный (одноголосый), Профессиональный (многоголосый, закадровый), Профессиональный (полное дублирование)
Режиссер: Адам Шенкман
Сценарий: Николас Спаркс, Карен Джансзен
Продюсер: Денис Ди Нови, Хант Лоури, Е.К. Гэйлорд II
Оператор: Хулио Макат
Композитор: Мервин Уоррен
В ролях: Шэйн Уэст, Мэнди Мур, Питер Койот, Дэрил Ханна, Лорен Джерман, Клейн Кроуфорд, Аль Томпсон, Пас де ла Уэрта, Джонатан Паркс Джордан, Мэтт Лутс, Дэвид Эндрюс, Дэвид Ли Смит, Ксавьер Эрнандез, Мариса Миллер, Паула Джонс, Эрик Смит, Аль Батлер, Сет Ховард, Джулия Энн , Уэст, Фрэнсис Э. Дэвис, Дин Мамфорд, Энн Флетчер, Мервин Уоррен, Робин Кларк, Вивиан Черри, Арлин Мартел, Никки Грегорефф, Илэйн , Касвелл, Дива Грэй, Кэссиди Ладден, Джени Барнетт, Гордон Гроди, Кевин Осборн, Джейсон Пейдж, Чарльз Э. Бэйли, Шила Бразерс, Келли Коул , Чилдерс, Адам Шенкман
Описание: Лэндон Картер - кумир своей школы: он независим, красив и жесток к изгоям. И конечно, он не замечает невзрачную Джэйми, думающую только об учебе. После очередной дурацкой выходки Картера заставляют заниматься с отстающими и играть в школьном спектакле.
Тут уж ему не обойтись без помощи скромной отличницы. Джэйми соглашается помочь Лэндону, но только если он пообещает, что не будет влюбляться в нее. Самонадеянный парень охотно дает клятву, но вскоре он убедится, что сдержать ее будет очень непросто/

Изображение
Бюджет: $11 800 000
Сборы в мире: $47 494 916
Изображение
MPAA:
Релиз группы: Изображение

Раздача группы: Изображение
Качество: HDTV (1080i)
Формат: MKV
Видео: MPEG-2, 13727 Кбит/с, 1920x1080, 29.970 Кадр/с
Аудио: Русский (АС3, 6 ch, 448 Кбит/с - дубляж), русский (АС3, 6 ch, 384 Кбит/с - многоголосый), русский (АС3, 2 ch, 192 Кбит/с - одноголосый), английский (АС3, 6 ch, 384 Кбит/с)
M.I.
Общее
Уникальный идентификатор         : 202656205683884760151792695708092329113 (0x98762A5DD4C42A27A570F7D4C2CDEC99)
Полное имя                       : K:\Фильмы\Speshi.luybitj.2002.MPEG-2.HDTV.1080i.mkv
Формат                           : Matroska
Размер файла                     : 10,8 Гбайт
Продолжительность                : 1 ч. 42 м.
Общий поток                      : 15,1 Мбит/сек
Название фильма                  : A Walk To Remember. 2002. HDTV (1080i) - Kinozal.TV-HD (YlNiAn)
Дата кодирования                 : UTC 2010-12-06 21:18:11
Программа кодирования            : mkvmerge v4.4.0 ('Die Wiederkehr') сборка от Oct 31 2010 21:52:48
Библиотека кодирования           : libebml v1.0.0 + libmatroska v1.0.0

Видео
Идентификатор                    : 1
Формат                           : MPEG Video
Версия формата                   : Version 2
Профиль формата                  : Main@High
Параметр BVOP формата            : Да
Параметр матрицы формата         : По умолчанию
Идентификатор кодека             : V_MPEG2
Идентификатор кодека/Информация  : MPEG 1 or 2 Video
Продолжительность                : 1 ч. 42 м.
Вид битрейта                     : Переменный
Битрейт                          : 13,7 Мбит/сек
Ширина                           : 1920 пикс.
Высота                           : 1080 пикс.
Соотношение сторон               : 16:9
Частота кадров                   : 29,970 кадр/сек
Стандарт вещания                 : Component
Цветовое пространство            : YUV
Подвыборка цветности             : 4:2:0
Битовая глубина                  : 8 бит
Тип развёртки                    : Чересстрочная
Порядок развёртки                : Верхнее поле первое
Метод сжатия                     : С потерями
Бит/(Пиксели*Кадры)              : 0.221
Размер потока                    : 9,57 Гбайт (89%)
Заголовок                        : A Walk To Remember. 2002. HDTV (1080i)
Язык                             : English

Аудио #1
Идентификатор                    : 2
Формат                           : AC-3
Формат/Информация                : Audio Coding 3
Расширение режима                : CM (complete main)
Режим смешивания                 : Header stripping
Идентификатор кодека             : A_AC3
Продолжительность                : 1 ч. 42 м.
Вид битрейта                     : Постоянный
Битрейт                          : 448 Кбит/сек
Канал(ы)                         : 6 канала(ов)
Расположение каналов             : Front: L C R, Side: L R, LFE
Частота                          : 48,0 КГц
Битовая глубина                  : 16 бит
Метод сжатия                     : С потерями
Размер потока                    : 327 Мбайт (3%)
Заголовок                        : DUB (AC3 5.1 448 kbps)
Язык                             : Russian

Аудио #2
Идентификатор                    : 3
Формат                           : AC-3
Формат/Информация                : Audio Coding 3
Расширение режима                : CM (complete main)
Режим смешивания                 : Header stripping
Идентификатор кодека             : A_AC3
Продолжительность                : 1 ч. 42 м.
Вид битрейта                     : Постоянный
Битрейт                          : 384 Кбит/сек
Канал(ы)                         : 6 канала(ов)
Расположение каналов             : Front: L C R, Side: L R, LFE
Частота                          : 48,0 КГц
Битовая глубина                  : 16 бит
Метод сжатия                     : С потерями
Размер потока                    : 280 Мбайт (3%)
Заголовок                        : MVO (AC3 5.1 384 kbps)
Язык                             : Russian

Аудио #3
Идентификатор                    : 4
Формат                           : AC-3
Формат/Информация                : Audio Coding 3
Расширение режима                : CM (complete main)
Режим смешивания                 : Header stripping
Идентификатор кодека             : A_AC3
Продолжительность                : 1 ч. 42 м.
Вид битрейта                     : Постоянный
Битрейт                          : 192 Кбит/сек
Канал(ы)                         : 2 канала(ов)
Расположение каналов             : Front: L R
Частота                          : 48,0 КГц
Битовая глубина                  : 16 бит
Метод сжатия                     : С потерями
Размер потока                    : 140 Мбайт (1%)
Заголовок                        : VO (AC3 2.0 192 kbps)
Язык                             : Russian

Аудио #4
Идентификатор                    : 5
Формат                           : AC-3
Формат/Информация                : Audio Coding 3
Расширение режима                : CM (complete main)
Режим смешивания                 : Header stripping
Идентификатор кодека             : A_AC3
Продолжительность                : 1 ч. 42 м.
Вид битрейта                     : Постоянный
Битрейт                          : 384 Кбит/сек
Канал(ы)                         : 6 канала(ов)
Расположение каналов             : Front: L C R, Side: L R, LFE
Частота                          : 48,0 КГц
Битовая глубина                  : 16 бит
Метод сжатия                     : С потерями
Размер потока                    : 280 Мбайт (3%)
Заголовок                        : AC3 5.1 384 kbps
Язык                             : English

Текст #1
Идентификатор                    : 6
Формат                           : UTF-8
Идентификатор кодека             : S_TEXT/UTF8
Идентификатор кодека/Информация  : UTF-8 Plain Text
Язык                             : Russian

Текст #2
Идентификатор                    : 7
Формат                           : UTF-8
Идентификатор кодека             : S_TEXT/UTF8
Идентификатор кодека/Информация  : UTF-8 Plain Text
Язык                             : English
Свернуть
Скриншоты
Изображение
Изображение
Изображение
Изображение
Свернуть


Тема поднималась пользователем Биг 2012-11-25 15:10.
Не в сети
Профиль  
Начать новую темуОтветить на тему  [ 1 сообщение ] 
Вы не можете начинать темы
Вы не можете отвечать на сообщения
Вы не можете редактировать свои сообщения
Вы не можете удалять свои сообщения