Правила форума

  • В этом разделе создание новых тем Запрещено.
  • Для создания новых тем пользуйтесь Корневым разделом DVD и HD фильмы.
Начать новую темуОтветить на тему  [ Сообщений: 3 ] 
Торрент файл
Размер: 11.22 GB • Зарегистрирован: 3 года 9 месяцев • Статус: Проверено
Скачан: 64 раза • Желающих скачать: 0 • Поблагодарили: 21 раз
 Раздают: 1  |  0 KB/s  ]   Качают: 0  |  0 KB/s  ] 
Сообщения
 Добавлено: 2013-02-25 16:25
Аватара пользователя
Стаж: 8 лет 11 месяцев
Сообщений: 149
Спасибок: 3735
Лайков: 1
Список Шиндлера
Schindler's List

«Этот список - жизнь.»

Изображение

Год выпуска: 1993
Страна: США
Жанр: драма, военный, биография, история, ...
Продолжительность: 03:07:06
Перевод: Профессиональный (дублированный) с VHS, профессиональный (многоголосый закадровый) Киномания
Режиссер: Стивен Спилберг
Сценарий: Стивен Зеллиан, Томас Кинелли
Продюсер: Бранко Лустиг, Джералд Р. Молен, Стивен Спилберг, ...
Оператор: Януш Камински
Композитор: Джон Уильямс
В ролях: Лиам Нисон, Бен Кингсли, Рэйф Файнс, Кэролайн Гудолл, Джонатан Сагалл, Эмбет Дэвидц, Малгоша Гебель, Шмуэль Леви, Марк Иванир, Беатрис Макола...

Описание: Лента рассказывает реальную историю загадочного Оскара Шиндлера, члена нацистской партии, преуспевающего фабриканта, спасшего во время Второй мировой войны более тысячи ста евреев. Это триумф одного человека, не похожего на других, и драма тех, кто, благодаря ему, выжил в ужасный период человеческой истории.
Рейтинг MPAA: R (Лицам до 17 лет обязательно присутствие взрослого)
Бюджет: $22 000 000
Кассовые сборы: $321 265 768

KinoPoisk.Ru: 8.876
Top250: №5

Качество: BDRip 720p [CHD]
Формат: MKV
Видео: MPEG-4 AVC, 1280x694 (1.85:1), 23.976 fps, 6080 kbps avg, 0.285 bit/pixel
Аудио #1: Русский: 48 kHz, AC3, 2/0 (L,R) ch, ~192.00 kbps avg |Дубляж, с VHS|
Аудио #2: Русский: 48 kHz, AC3, 3/2 (L,C,R,l,r) + LFE ch, ~448.00 kbps avg |Многоголосый закадровый, Киномания|
Аудио #3: Английский: 48 kHz, DTS, 3/2 (L,C,R,l,r) + LFE ch, ~1509.00 kbps avg |Английский|
Субтитры: Русские, Английские
Скачать: Сэмпл
Знаете ли вы, что...
  • Специально для своей роли Рэйф Файнс поправился на 13 кг. Для этого он пил много пива «Guinness». По словам режиссера, он пригласил этого актера из-за его «дьявольской сексуальности».
  • Спилберг собирался взять в картину Клэр Дэйнс, но та отказалась, иначе ей пришлось бы на время забросить учебу.
  • На роль Амона Гота рассматривалась кандидатура Тима Рота.
  • Когда бывшую узницу Освенцима Милу Пфефферберг представили Рэйфу Файнсу, она не могла скрыть дрожи от волнения – настолько он был похож на реального Амона Гота.
  • Знаменитый режиссер и кинодраматург Билли Уайлдер участвовал в создании первого варианта сценария, а на самой ранней стадии разработки проекта был даже привлечен к нему в качестве постановщика. Именно Уайлдер потом уговорил Спилберга стать режиссером этой картины.
  • В 80-х годах Мартин Скорсезе отказался от постановки, поскольку считал, что только режиссер-еврей может должным образом снять этот фильм. В итоге он поменялся со Спилбергом проектами, взявшись за «Мыс страха» (1991).
  • Спилберг предлагал постановку Роману Полански, но тот отказался по личным причинам. Дело в том, что, когда ему было 8 лет, он жил в краковском гетто и сбежал оттуда в день его ликвидации. Позднее мать Полански умерла в Освенциме.
  • Сцена ликвидации краковского гетто занимала в сценарии всего одну страницу. Спилберг расширил ее до 20 страниц и 20 минут экранного времени. А создавал он ее на основе свидетельств очевидцев тех событий.
  • Поскольку Спилбергу не удалось получить разрешение на съемки в Освенциме, ему пришлось выстроить неподалеку декорацию, досконально имитировавшую этот концлагерь.
  • Спилберг отказался от гонорара за работу, назвав эти деньги кровавыми.
  • Чтобы одеть 20 тысяч статистов, художник по костюмам разместил повсюду объявления о том, что студия хочет приобрести одежду военного времени. А поскольку в начале 90-х экономическая ситуация в Польше была довольно сложной, местные жители с готовностью продавали сохранившуюся у них одежду 30-х и 40-х годов.
  • «Список Шиндлера» стал самым дорогостоящим черно-белым фильмом за всю историю. Прежний рекорд принадлежал другой военной драме – «Самый длинный день» 1962 года.
  • На съемках нельзя было использовать ничего зеленого, поскольку этот цвет плохо смотрится на черно-белой пленке.
  • Почти 40% фильма было снято ручной кинокамерой.
  • Роль Оскара Шиндлера предлагалась Харрисону Форду и Бруно Ганцу.
  • От участия в картине отказалась Жюльетт Бинош.
  • Съемки завершились на 4 дня раньше намеченного срока. Всего они продолжались 72 дня.
  • В последней сцене фильма на могилу Шиндлера кладет цветы человек, лица которого не видно. Это не Спилберг, как некоторые предполагают, а Лиам Нисон.
  • Первоначально Стивен Спилберг намеревался сделать фильм на польском и немецком языке, с английскими субтитрами.
  • Настоящий список Оскара Шиндлера был найден в его франкфуртской квартире только в 2000 году. В этой квартире Шиндлер прожил последние месяцы жизни. Он скончался в 1974 году.
Свернуть
Награды и премии

Изображение
Оскар, 1994 год
Победитель (7):
Лучший фильм
Лучший режиссер (Стивен Спилберг)
Лучший адаптированный сценарий
Лучшая работа оператора
Лучшие декорации
Лучший монтаж
Лучший оригинальный саундтрек

Номинации (5):
Лучшая мужская роль (Лиам Нисон)
Лучшая мужская роль второго плана (Рэйф Файнс)
Лучшие костюмы
Лучший звук
Лучший грим

Изображение
Золотой глобус, 1994 год
Победитель (3):
Лучший фильм (драма)
Лучший режиссер (Стивен Спилберг)
Лучший сценарий

Номинации (3):
Лучшая мужская роль (драма) (Лиам Нисон)
Лучшая мужская роль второго плана (Рэйф Файнс)
Лучший саундтрек

Изображение
Премия канала «MTV», 1994 год
Номинации (2):
Прорыв года (Рэйф Файнс)
Лучший фильм

Изображение
Британская академия, 1994 год
Победитель (7):
Лучший фильм
Лучшая мужская роль второго плана (Рэйф Файнс)
Лучший адаптированный сценарий
Лучшая работа оператора
Лучший монтаж
Лучший саундтрек
Премия имени Дэвида Лина за достижения в режиссуре (Стивен Спилберг)

Номинации (6):
Лучшая мужская роль (Лиам Нисон)
Лучшая мужская роль второго плана (Бен Кингсли)
Лучшие костюмы
Лучший звук
Лучший грим
Лучшая работа художника-постановщика

Изображение
Сезар, 1995 год
Номинации (1):
Лучший фильм на иностранном языке

Свернуть
MediaInfo
Complete name :Spisok.Shindlera.1993.x264.BDRip.720p.mkv
 Format : Matroska
 Format version : Version 4 / Version 2
 File size : 11.2 GiB
 Duration : 3h 15mn
 Overall bit rate : 8 232 Kbps
 Movie name : -::: ed_rez :::-
 Encoded date : UTC 2013-02-24 08:06:29
 Writing application : mkvmerge v6.0.0 ('Coming Up For Air') built on Jan 20 2013 09:52:00
 Writing library : libebml v1.3.0 + libmatroska v1.4.0

Video
 ID : 1
 Format : AVC
 Format/Info : Advanced Video Codec
 Format profile : High@L4.1
 Format settings, CABAC : Yes
 Format settings, ReFrames : 8 frames
 Codec ID : V_MPEG4/ISO/AVC
 Duration : 3h 15mn
 Bit rate : 6 080 Kbps
 Width : 1 280 pixels
 Height : 694 pixels
 Display aspect ratio : 1.85:1
 Frame rate mode : Constant
 Frame rate : 23.976 fps
 Color space : YUV
 Chroma subsampling : 4:2:0
 Bit depth : 8 bits
 Scan type : Progressive
 Bits/(Pixel*Frame) : 0.285
 Stream size : 8.07 GiB (72%)
 Title : Schindlers.List.1993.BluRay.720p.DTS.x264-CHD
 Writing library : x264 core 125 r2208 d9d2288
 Encoding settings : cabac=1 / ref=8 / deblock=1:-3:-3 / analyse=0x3:0x113 / me=umh / subme=10 / psy=1 / psy_rd=1.05:0.10 / mixed_ref=1 / me_range=32 / chroma_me=1 / trellis=2 / 8x8dct=1 / cqm=0 / deadzone=21,11 / fast_pskip=0 / chroma_qp_offset=-2 / threads=8 / lookahead_threads=1 / sliced_threads=0 / nr=0 / decimate=1 / interlaced=0 / bluray_compat=0 / constrained_intra=0 / bframes=6 / b_pyramid=2 / b_adapt=2 / b_bias=0 / direct=3 / weightb=1 / open_gop=0 / weightp=2 / keyint=250 / keyint_min=23 / scenecut=40 / intra_refresh=0 / rc=2pass / mbtree=0 / bitrate=6080 / ratetol=1.0 / qcomp=0.70 / qpmin=0 / qpmax=69 / qpstep=4 / cplxblur=20.0 / qblur=0.5 / ip_ratio=1.40 / pb_ratio=1.30 / aq=2:0.80
 Language : English
 Default : Yes
 Forced : No

Audio #1
 ID : 2
 Format : AC-3
 Format/Info : Audio Coding 3
 Mode extension : CM (complete main)
 Format settings, Endianness : Big
 Codec ID : A_AC3
 Duration : 3h 15mn
 Bit rate mode : Constant
 Bit rate : 192 Kbps
 Channel(s) : 2 channels
 Channel positions : Front: L R
 Sampling rate : 48.0 KHz
 Bit depth : 16 bits
 Compression mode : Lossy
 Stream size : 268 MiB (2%)
 Title : [DUB] AC3, 2 ch, 192 kbps
 Language : Russian
 Default : Yes
 Forced : No

Audio #2
 ID : 3
 Format : AC-3
 Format/Info : Audio Coding 3
 Mode extension : CM (complete main)
 Format settings, Endianness : Big
 Codec ID : A_AC3
 Duration : 3h 15mn
 Bit rate mode : Constant
 Bit rate : 448 Kbps
 Channel(s) : 6 channels
 Channel positions : Front: L C R, Side: L R, LFE
 Sampling rate : 48.0 KHz
 Bit depth : 16 bits
 Compression mode : Lossy
 Stream size : 626 MiB (5%)
 Title : [MVO] AC3, 6 ch, 448 kbps
 Language : Russian
 Default : No
 Forced : No

Audio #3
 ID : 4
 Format : DTS
 Format/Info : Digital Theater Systems
 Mode : 16
 Format settings, Endianness : Big
 Codec ID : A_DTS
 Duration : 3h 15mn
 Bit rate mode : Constant
 Bit rate : 1 509 Kbps
 Channel(s) : 6 channels
 Channel positions : Front: L C R, Side: L R, LFE
 Sampling rate : 48.0 KHz
 Bit depth : 24 bits
 Compression mode : Lossy
 Stream size : 2.06 GiB (18%)
 Title : [Original] DTS, 6 ch, 1510 kbps
 Language : English
 Default : No
 Forced : No

Text #1
 ID : 5
 Format : UTF-8
 Codec ID : S_TEXT/UTF8
 Codec ID/Info : UTF-8 Plain Text
 Language : Russian
 Default : Yes
 Forced : No

Text #2
 ID : 6
 Format : UTF-8
 Codec ID : S_TEXT/UTF8
 Codec ID/Info : UTF-8 Plain Text
 Language : English
 Default : No
 Forced : No
Свернуть
"Скриншоты"
Изображение

Изображение

Изображение

Изображение

Изображение

Изображение

Изображение

Изображение
Свернуть


Последний раз редактировалось DeMiNN 2013-02-25 18:16, всего редактировалось 1 раз.
Не в сети
Профиль  
 Добавлено: 2013-02-25 17:50 (спустя 1 час 25 минут)
Модератор
Аватара пользователя
Стаж: 8 лет 11 месяцев
Сообщений: 516
Спасибок: 26888
Лайков: 1
Для HD и HQRip-ов необходимы скриншоты в формате PNG, для остальных форматов PNG так же рекомендуется.
Не в сети
Профиль  
 Добавлено: 2013-02-25 18:18 (спустя 27 минут)
Аватара пользователя
Стаж: 8 лет 11 месяцев
Сообщений: 149
Спасибок: 3735
Лайков: 1
-=Elis=-
поменял скриншоты на png
Не в сети
Профиль  
Начать новую темуОтветить на тему  [ Сообщений: 3 ] 
Вы не можете начинать темы
Вы не можете отвечать на сообщения
Вы не можете редактировать свои сообщения
Вы не можете удалять свои сообщения