Правила форума

  • В этом разделе создание новых тем Запрещено.
  • Для создания новых тем пользуйтесь Корневым разделом DVD и HD фильмы.
Начать новую темуОтветить на тему  [ Сообщений: 5 ] 
Торрент файл
Размер: 10.91 GB • Зарегистрирован: 4 года 2 месяца • Статус: Проверено
Скачан: 272 раза • Желающих скачать: 0 • Поблагодарили: 45 раз
 Раздают: 0  |  0 KB/s  ]   Качают: 0  |  0 KB/s  ] 
 Полного источника не было 2 года 11 месяцев 
Сообщения
 Добавлено: 2012-09-20 19:30
Модератор релиз-группы
Аватара пользователя
Стаж: 9 лет 1 месяц
Возраст: 97
Сообщений: 11660
Спасибок: 6533
Лайков: 269
Средь бела дня / The Cold Light of Day
«Будь осторожен даже с теми, кому доверяешь»

Изображение

Год выпуска: 2012
Страна: США

Жанр: боевик, триллер
Продолжительность: 01:33:22
Перевод: Профессиональный (полное дублирование)[с ДВД лицензии R5]

Режиссер: Мабрук Эль Мекри
В ролях: Генри Кавилл, Сигурни Уивер, Брюс Уиллис, Вероника Эчеги, Джозеф Моул, Кэролайн Гудолл, Рафи Гаврон, Эмма Хэмилтон, Майкл Бадд, Рошди Зем, Оскар Хаенада, Джо Диксон

Описание: Испания, море, яхта - отпуск с поднадоевшей молодому Уиллу Шоу компанией родственников. Никто не мог предположить, что уже через несколько часов палуба яхты обагрится кровью, а члены семьи Шоу станут заложниками в руках неизвестных. В поисках родных Уилл невольно узнает о государственном заговоре и раскрывает тайны своего отца. У парня всего несколько часов, чтобы спасти семью и страну от гибели.
Изображение
Качество: BDRip, 1080p
Формат: Mkv
Видео: MPEG-4 AVC, 14.8 Мбит/с, 1920x818, 24 кадр/с
Аудио №1: АС3, 48kHz, 6 ch, 384 Кбит/с [Русский]
Аудио №2: DTS, 48kHz, 6 ch, 1510 Кбит/с [английский]
Субтитры: Русские, английские
cкриншоты
Изображение

Изображение

Изображение
Свернуть
Mi
Format : Matroska
Format version : Version 2
File size : 10.9 GiB
Duration : 1h 33mn
Overall bit rate : 16.7 Mbps
Movie name : --SCHUMAHER--
Encoded date : UTC 2012-09-20 09:53:44
Writing application : mkvmerge v5.8.0 ('No Sleep / Pillow') built on Sep 2 2012 15:37:04
Writing library : libebml v1.2.3 + libmatroska v1.3.0

Video
ID : 1
Format : AVC
Format/Info : Advanced Video Codec
Format profile : High@L4.1
Format settings, CABAC : Yes
Format settings, ReFrames : 5 frames
Codec ID : V_MPEG4/ISO/AVC
Duration : 1h 33mn
Bit rate : 14.8 Mbps
Width : 1 920 pixels
Height : 818 pixels
Display aspect ratio : 2.35:1
Frame rate : 24.000 fps
Color space : YUV
Chroma subsampling : 4:2:0
Bit depth : 8 bits
Scan type : Progressive
Bits/(Pixel*Frame) : 0.393
Stream size : 9.45 GiB (87%)
Writing library : x264 core 125 r2208 d9d2288
Encoding settings : cabac=1 / ref=5 / deblock=1:-3:-3 / analyse=0x3:0x113 / me=umh / subme=11 / psy=1 / psy_rd=1.15:0.02 / mixed_ref=1 / me_range=48 / chroma_me=1 / trellis=2 / 8x8dct=1 / cqm=0 / deadzone=21,11 / fast_pskip=0 / chroma_qp_offset=-3 / threads=18 / lookahead_threads=3 / sliced_threads=0 / nr=0 / decimate=0 / interlaced=0 / bluray_compat=0 / constrained_intra=0 / bframes=8 / b_pyramid=2 / b_adapt=2 / b_bias=0 / direct=3 / weightb=1 / open_gop=0 / weightp=2 / keyint=240 / keyint_min=24 / scenecut=40 / intra_refresh=0 / rc_lookahead=240 / rc=2pass / mbtree=1 / bitrate=14800 / ratetol=1.0 / qcomp=0.70 / qpmin=0 / qpmax=69 / qpstep=4 / cplxblur=20.0 / qblur=0.5 / ip_ratio=1.20 / aq=1:0.85
Language : English
Default : Yes
Forced : Yes

Audio #1
ID : 2
Format : AC-3
Format/Info : Audio Coding 3
Mode extension : CM (complete main)
Format settings, Endianness : Big
Codec ID : A_AC3
Duration : 1h 33mn
Bit rate mode : Constant
Bit rate : 384 Kbps
Channel(s) : 6 channels
Channel positions : Front: L C R, Side: L R, LFE
Sampling rate : 48.0 KHz
Bit depth : 16 bits
Compression mode : Lossy
Stream size : 257 MiB (2%)
Language : Russian
Default : Yes
Forced : Yes

Audio #2
ID : 3
Format : DTS
Format/Info : Digital Theater Systems
Codec ID : A_DTS
Duration : 1h 33mn
Bit rate mode : Constant
Bit rate : 1 510 Kbps
Channel(s) : 6 channels
Channel positions : Front: L C R, Side: L R, LFE
Sampling rate : 48.0 KHz
Bit depth : 24 bits
Compression mode : Lossy
Stream size : 1 010 MiB (9%)
Language : English
Default : No
Forced : No

Text #1
ID : 4
Format : UTF-8
Codec ID : S_TEXT/UTF8
Codec ID/Info : UTF-8 Plain Text
Language : Russian
Default : No
Forced : No

Text #2
ID : 5
Format : UTF-8
Codec ID : S_TEXT/UTF8
Codec ID/Info : UTF-8 Plain Text
Title : Full
Language : English
Default : No
Forced : No

Text #3
ID : 6
Format : UTF-8
Codec ID : S_TEXT/UTF8
Codec ID/Info : UTF-8 Plain Text
Title : Full SDH
Language : English
Default : No
Forced : No

Menu
00:00:00.000 : en:00:00:00.000
00:08:41.000 : en:00:08:41.000
00:15:49.833 : en:00:15:49.833
00:22:52.458 : en:00:22:52.458
00:32:26.125 : en:00:32:26.125
00:41:09.583 : en:00:41:09.583
00:51:29.667 : en:00:51:29.667
00:56:48.750 : en:00:56:48.750
01:03:23.333 : en:01:03:23.333
01:11:06.458 : en:01:11:06.458
01:16:06.875 : en:01:16:06.875
01:25:11.375 : en:01:25:11.375

Свернуть
_________________
Изображение
Не в сети
Профиль  
 Добавлено: 2012-09-26 21:36 (спустя 6 дней)
Стаж: 7 лет 8 месяцев
Сообщений: 5
Кто смотрел, напишите как фильм. Спасибо!!
Не в сети
Профиль  
 Добавлено: 2012-10-02 21:31 (спустя 5 дней)
Аватара пользователя
Стаж: 8 лет 3 месяца
Сообщений: 20
На раз посмотреть - нормально!
Жаль Брюса быстро вынесли :-[ Зато Сигурни зачетно сыграла :)
Не в сети
Профиль  
 Добавлено: 2012-10-03 16:24 (спустя 18 часов)
Аватара пользователя
Стаж: 8 лет 7 месяцев
Возраст: 37
Сообщений: 115
Спасибок: 191
Лайков: 2
Фильм оставляет двоякое впечатление, местами динамичный и захватывающий, а местами банальщина, нелогичность граничащая с тупизной..... В итоге фильм скорее понравился чем не понравился!
Не в сети
Профиль  
 Добавлено: 2012-10-03 19:18 (спустя 2 часа 54 минуты)
Аватара пользователя
Стаж: 5 лет 7 месяцев
Сообщений: 21
у парня всего несколько часов чтобы спасти семью и страну от гибели.... вот эта фраза поставила все на свои места :ps_ih:
Не в сети
Профиль  
Начать новую темуОтветить на тему  [ Сообщений: 5 ] 
Вы не можете начинать темы
Вы не можете отвечать на сообщения
Вы не можете редактировать свои сообщения
Вы не можете удалять свои сообщения