Правила форума

  • В этом разделе создание новых тем Запрещено.
  • Для создания новых тем пользуйтесь Корневым разделом DVD и HD фильмы.
Начать новую темуОтветить на тему  [ 1 сообщение ] 
Торрент файл
Размер: 5.32 GB • Зарегистрирован: 3 года 11 месяцев • Статус: Проверено
Скачан: 31 раз • Желающих скачать: 0 • Поблагодарили: 7 раз
 Раздают: 0  |  0 KB/s  ]   Качают: 0  |  0 KB/s  ] 
 Полного источника не было 1 год 11 месяцев 
Сообщения
 Добавлено: 2012-12-31 16:40
Модератор
Аватара пользователя
Стаж: 6 лет 10 месяцев
Возраст: 33
Сообщений: 5908
Спасибок: 61265
Лайков: 3540
Изображение

Срочная доставка
Premium Rush


Год выпуска: 2012
Страна: США
Слоган: «Ride Like Hell»
Жанр: боевик, триллер
Продолжительность: 01:30:57
Перевод: Профессиональный (многоголосый, закадровый)
1. Russian DD 5.1 48 kHz 640 kbps – закадровый (многоголосый, BD EUR);
2. Russian DTS 5.1 48 kHz 1510 kbps 16-bit – закадровый (авторский одноголосый, Гаврилов);
3. English DTS 5.1 48 kHz 1510 kbps 16-bit.
Режиссер: Дэвид Кепп
Сценарий: Дэвид Кепп, Джон Кэмпс
Продюсер: Гэвин Полон, Мэри-Джо Уинклер
Оператор: Митчелл Амундсен
Композитор: Дэвид Сарди
В ролях: Джозеф Гордон-Левитт, Майкл Шеннон, Дания Рамирез, Джейми Чунг, Шон Кеннеди, Ким Перфетто, Энтони Чишолм, Эшли Остин Моррис, Уоли Паркс, Кевин Болджер, Аасиф Мандви, Лорен Эшли Картер
Бюджет: $35 000 000
Сборы в США: $20 275 446
Сборы в мире: $30 675 248
Мировая премьера: 23 августа 2012
Релиз на DVD: 4 декабря 2012, «Columbia/Sony»
Релиз на Blu-ray: 4 декабря 2012, «Columbia/Sony»
Описание: Нью-йоркский посыльный в один прекрасный день забирает некий конверт в Колумбийском университете. Но оказывается, что содержимое послания очень интересует одного коррумпированного полицейского, который начинает преследование героя.

Изображение User Rating: 6.600 (8001)
Изображение User Rating: 6.60 (26 303)
MPAA: PG-13 - Детям до 13 лет просмотр не желателен
Раздача группы: Изображение
Качество: BDRip, 720p
Формат: Matroska
Видео: MPEG-4 AVC, 4700 Кбит/с, 1280x534
Аудио №1: Русский (AC3, 6 ch, 640 Кбит/c), (DTS, 6 ch, 1510 Кбит/c), английский (DTS, 6 ch, 1510 Кбит/c)
Субтитры №1: Английские, русские
mediainfo
General
Unique ID : 251597266742472913644771145088370833408 (0xBD47DEF97F623E169F6F02111ED17800)
Complete name : G:\Premium.Rush.2012.x264.BDRip.720p.HDTracker.mkv
Format : Matroska
Format version : Version 2
File size : 5.32 GiB
Duration : 1h 30mn
Overall bit rate : 8 368 Kbps
Movie name : =HDTracker=
Encoded date : UTC 2012-12-31 08:19:07
Writing application : mkvmerge v4.4.0 ('Die Wiederkehr') сборка от Oct 31 2010 21:52:48
Writing library : libebml v1.0.0 + libmatroska v1.0.0

Video
ID : 1
Format : AVC
Format/Info : Advanced Video Codec
Format profile : High@L4.1
Format settings, CABAC : Yes
Format settings, ReFrames : 10 frames
Codec ID : V_MPEG4/ISO/AVC
Duration : 1h 30mn
Bit rate : 4 700 Kbps
Width : 1 280 pixels
Height : 534 pixels
Display aspect ratio : 2.40:1
Frame rate : 23.976 fps
Color space : YUV
Chroma subsampling : 4:2:0
Bit depth : 8 bits
Scan type : Progressive
Bits/(Pixel*Frame) : 0.287
Stream size : 2.89 GiB (54%)
Title : Видеоряд
Writing library : x264 core 125 r2200 999b753
Encoding settings : cabac=1 / ref=10 / deblock=1:-3:-3 / analyse=0x3:0x133 / me=umh / subme=11 / psy=1 / psy_rd=1.00:0.00 / mixed_ref=1 / me_range=32 / chroma_me=1 / trellis=2 / 8x8dct=1 / cqm=0 / deadzone=21,11 / fast_pskip=0 / chroma_qp_offset=-2 / threads=12 / lookahead_threads=2 / sliced_threads=0 / nr=0 / decimate=0 / interlaced=0 / bluray_compat=0 / constrained_intra=0 / bframes=8 / b_pyramid=2 / b_adapt=2 / b_bias=0 / direct=3 / weightb=1 / open_gop=0 / weightp=2 / keyint=240 / keyint_min=23 / scenecut=40 / intra_refresh=0 / rc=2pass / mbtree=0 / bitrate=4700 / ratetol=1.0 / qcomp=0.70 / qpmin=0 / qpmax=69 / qpstep=4 / cplxblur=20.0 / qblur=0.5 / ip_ratio=1.40 / pb_ratio=1.30 / aq=2:1.20

Audio #1
ID : 2
Format : AC-3
Format/Info : Audio Coding 3
Mode extension : CM (complete main)
Codec ID : A_AC3
Duration : 1h 30mn
Bit rate mode : Constant
Bit rate : 640 Kbps
Channel(s) : 6 channels
Channel positions : Front: L C R, Side: L R, LFE
Sampling rate : 48.0 KHz
Bit depth : 16 bits
Compression mode : Lossy
Stream size : 416 MiB (8%)
Title : Дублированный
Language : Russian

Audio #2
ID : 3
Format : DTS
Format/Info : Digital Theater Systems
Codec ID : A_DTS
Duration : 1h 30mn
Bit rate mode : Constant
Bit rate : 1 510 Kbps
Channel(s) : 6 channels
Channel positions : Front: L C R, Side: L R, LFE
Sampling rate : 48.0 KHz
Bit depth : 16 bits
Compression mode : Lossy
Stream size : 982 MiB (18%)
Title : Гаврилов
Language : Russian

Audio #3
ID : 4
Format : DTS
Format/Info : Digital Theater Systems
Codec ID : A_DTS
Duration : 1h 30mn
Bit rate mode : Constant
Bit rate : 1 510 Kbps
Channel(s) : 6 channels
Channel positions : Front: L C R, Side: L R, LFE
Sampling rate : 48.0 KHz
Bit depth : 16 bits
Compression mode : Lossy
Delay relative to video : 11ms
Stream size : 982 MiB (18%)
Title : Английский
Language : English

Text #1
ID : 5
Format : VobSub
Muxing mode : zlib
Codec ID : S_VOBSUB
Codec ID/Info : The same subtitle format used on DVDs
Title : Русские (full)
Language : Russian

Text #2
ID : 6
Format : VobSub
Muxing mode : zlib
Codec ID : S_VOBSUB
Codec ID/Info : The same subtitle format used on DVDs
Title : Английские
Language : English

Menu
00:00:00.000 : :Chapter 01
00:05:43.301 : :Chapter 02
00:10:33.674 : :Chapter 03
00:19:39.845 : :Chapter 04
00:22:41.401 : :Chapter 05
00:28:54.107 : :Chapter 06
00:33:01.562 : :Chapter 07
00:37:37.171 : :Chapter 08
00:44:25.412 : :Chapter 09
00:50:52.758 : :Chapter 10
00:55:17.772 : :Chapter 11
00:58:40.600 : :Chapter 12
01:02:10.935 : :Chapter 13
01:09:15.234 : :Chapter 14
01:15:52.756 : :Chapter 15
01:22:29.861 : :Chapter 16


------------------------------------------------------------------------------


---[NoImage] x264 [info]: frame I:1038 Avg QP:17.72 size:110268
---[NoImage] x264 [info]: frame P:35783 Avg QP:21.04 size: 42736
---[NoImage] x264 [info]: frame B:94027 Avg QP:22.39 size: 16617
---[NoImage] x264 [info]: consecutive B-frames: 4.7% 8.4% 12.6% 29.5% 15.3% 20.2% 5.1% 2.8% 1.4%
---[NoImage] x264 [info]: mb I I16..4: 3.9% 79.7% 16.5%
---[NoImage] x264 [info]: mb P I16..4: 0.8% 16.8% 2.0% P16..4: 26.3% 33.3% 10.7% 4.4% 0.2% skip: 5.4%
---[NoImage] x264 [info]: mb B I16..4: 0.1% 1.6% 0.2% B16..8: 37.5% 22.8% 4.8% direct: 6.1% skip:26.9% L0:41.2% L1:46.3% BI:12.6%
---[NoImage] x264 [info]: 8x8 transform intra:84.6% inter:57.4%
---[NoImage] x264 [info]: direct mvs spatial:97.9% temporal:2.1%
---[NoImage] x264 [info]: coded y,uvDC,uvAC intra: 91.7% 85.7% 63.6% inter: 38.4% 26.1% 10.8%
---[NoImage] x264 [info]: i16 v,h,dc,p: 34% 25% 7% 34%
---[NoImage] x264 [info]: i8 v,h,dc,ddl,ddr,vr,hd,vl,hu: 11% 9% 6% 10% 14% 12% 14% 10% 14%
---[NoImage] x264 [info]: i4 v,h,dc,ddl,ddr,vr,hd,vl,hu: 14% 11% 4% 8% 14% 13% 15% 10% 13%
---[NoImage] x264 [info]: i8c dc,h,v,p: 39% 25% 17% 19%
---[NoImage] x264 [info]: Weighted P-Frames: Y:11.1% UV:6.4%
---[NoImage] x264 [info]: ref P L0: 47.7% 13.1% 17.5% 6.0% 4.7% 3.3% 2.8% 1.6% 1.5% 1.3% 0.4% 0.1%
---[NoImage] x264 [info]: ref B L0: 77.5% 10.5% 4.7% 2.5% 1.7% 1.3% 1.0% 0.5% 0.2%
---[NoImage] x264 [info]: ref B L1: 94.2% 5.8%
---[NoImage] x264 [info]: kb/s:4699.83
---[NoImage] encoded 130848 frames, 7.90 fps, 4699.83 kb/s
Свернуть
"Знаете ли Вы, что..."
  • Во время съемок Джозеф Гордон-Левитт въехал на велосипеде в такси, врезался в заднее стекло и разбил его. Ему удалось закрыть лицо, в результате чего он получил 31 шов на правой руке. Несмотря на большое количество крови, которая текла по его руке, он подумал, что это было «очуметь как круто». Он взял всю ответственность на себя, сказав: «Это была моя ошибка, я ехал слишком быстро». Видеоматериалы последствий аварии показаны в финальных титрах.
Свернуть
Скриншоты

Изображение
Изображение
Изображение
Изображение
Свернуть
_________________
ИзображениеИзображение Изображение
Изображение
 tany1984 и di-ys1 нравится это.
Не в сети
Профиль  
Начать новую темуОтветить на тему  [ 1 сообщение ] 
Вы не можете начинать темы
Вы не можете отвечать на сообщения
Вы не можете редактировать свои сообщения
Вы не можете удалять свои сообщения