Правила форума

  • В этом разделе создание новых тем Запрещено.
  • Для создания новых тем пользуйтесь Корневым разделом DVD и HD фильмы.
Начать новую темуОтветить на тему  [ Сообщений: 2 ] 
Торрент файл
Размер: 5.84 GB • Зарегистрирован: 4 года 7 месяцев • Статус: Проверено
Скачан: 79 раз • Желающих скачать: 0 • Поблагодарили: 11 раз
 Раздают: 0  |  0 KB/s  ]   Качают: 0  |  0 KB/s  ] 
 Полного источника не было 3 года 2 месяца 
Сообщения
 Добавлено: 2012-04-04 19:29
Руководитель релиз-группы
Аватара пользователя
Стаж: 7 лет 4 месяца
Возраст: 31
Сообщений: 3407
Спасибок: 46728
Лайков: 5
Изображение

«Старый» Новый год
New Year's Eve


Год выпуска: 2011
Страна: США
Слоган: «Начинаем обратный отсчет»
Жанр: мелодрама, комедия
Продолжительность: 01:57:55
Перевод: Профессиональный (полное дублирование) [лицензия]
Режиссер: Гэрри Маршалл
Сценарий: Кэтерин Фьюгейт
Продюсер: Ричард Бренер, Тоби Эммерих, Майк Карц
Оператор: Чарльз Мински
Композитор: Джон Дебни
В ролях: Холли Берри, Джессика Бил, Джон Бон Джови, Эбигейл Бреслин, Лудакрис, Роберт Де Ниро, Джош Дюамель, Зак Эфрон, Гектор Элизондо, Кэтрин Хейгл, Тиль Швайгер, Эштон Катчер, Сара Джессика Паркер, Мишель Пфайффер, Алисса Милано
Бюджет: $56 000 000
Сборы в мире: $142 044 638
Описание: Герои фильма - жители города, который никогда не спит. Нью-Йорк накануне Нового года переплетет жизни нескольких героев: умирающего в больнице пожилого человека, секретаршу, решившую осуществить данные себе обещания, продюсера знаменитого новогоднего шоу на Таймс Сквер, человека, который вообще ненавидит этот праздник.
Изображение
MPAA: Изображение
Релиз: Изображение Раздача группы: Изображение
Качество: BDRip, 720p
Формат: Matroska
Видео: AVC; 1280x720 (16:9); 4988 Kbps; 23,976 fps; 0,226 bit/pixel
Аудио №1: AC3; 448 Kbps; CBR; 6 ch Russian
Аудио №2: DTS; 1509 Kbps; CBR; 6 ch; 24 bit English
Субтитры: русские, английские
Изображение
mediainfo
Формат : Matroska
Версия формата : Version 2
Размер файла : 5,84 Гбайт
Продолжительность : 1 ч. 57 м.
Общий поток : 7087 Кбит/сек
Название фильма : Staryj Novyj god.2011.D.BDRip.720p.ELEKTRI4KA
Дата кодирования : UTC 2012-04-02 17:01:35
Программа кодирования : mkvmerge v5.3.0 ('I could have danced') built on Feb 9 2012 10:38:07
Библиотека кодирования : libebml v1.2.3 + libmatroska v1.3.0

Видео
Идентификатор : 1
Формат : AVC
Формат/Информация : Advanced Video Codec
Профиль формата : High@L4.1
Параметр CABAC формата : Да
Параметр ReFrames формата : 5 кадров
Параметры GOP формата : M=4, N=54
Идентификатор кодека : V_MPEG4/ISO/AVC
Продолжительность : 1 ч. 57 м.
Битрейт : 5130 Кбит/сек
Ширина : 1280 пикс.
Высота : 720 пикс.
Соотношение сторон : 16:9
Частота кадров : 23,976 кадр/сек
Цветовое пространство : YUV
Подвыборка цветности : 4:2:0
Битовая глубина : 8 бит
Тип развёртки : Прогрессивная
Бит/(Пиксели*Кадры) : 0.232
Размер потока : 4,11 Гбайт (70%)
Заголовок : Staryj Novyj god.2011.D.BDRip.720p.ELEKTRI4KA
Библиотека кодирования : x264 core 122 r2184 5c85e0a
Настройки программы : cabac=1 / ref=5 / deblock=1:-1:-1 / analyse=0x3:0x133 / me=umh / subme=7 / psy=1 / psy_rd=1.00:0.15 / mixed_ref=1 / me_range=16 / chroma_me=1 / trellis=1 / 8x8dct=1 / cqm=0 / deadzone=21,11 / fast_pskip=0 / chroma_qp_offset=-3 / threads=12 / sliced_threads=0 / nr=0 / decimate=1 / interlaced=0 / bluray_compat=0 / constrained_intra=0 / bframes=3 / b_pyramid=2 / b_adapt=1 / b_bias=0 / direct=3 / weightb=1 / open_gop=0 / weightp=2 / keyint=240 / keyint_min=23 / scenecut=40 / intra_refresh=0 / rc_lookahead=40 / rc=2pass / mbtree=1 / bitrate=5130 / ratetol=1.0 / qcomp=0.60 / qpmin=10 / qpmax=69 / qpstep=4 / cplxblur=20.0 / qblur=0.5 / ip_ratio=1.40 / aq=1:1.00
Язык : English

Аудио #1
Идентификатор : 2
Формат : AC-3
Формат/Информация : Audio Coding 3
Расширение режима : CM (complete main)
Идентификатор кодека : A_AC3
Продолжительность : 1 ч. 57 м.
Вид битрейта : Постоянный
Битрейт : 448 Кбит/сек
Каналы : 6 каналов
Расположение каналов : Front: L C R, Side: L R, LFE
Частота : 48,0 КГц
Битовая глубина : 16 бит
Метод сжатия : С потерями
Размер потока : 378 Мбайт (6%)
Язык : Russian

Аудио #2
Идентификатор : 3
Формат : DTS
Формат/Информация : Digital Theater Systems
Идентификатор кодека : A_DTS
Продолжительность : 1 ч. 57 м.
Вид битрейта : Постоянный
Битрейт : 1510 Кбит/сек
Каналы : 6 каналов
Расположение каналов : Front: L C R, Side: L R, LFE
Частота : 48,0 КГц
Битовая глубина : 24 бит
Метод сжатия : С потерями
Размер потока : 1,24 Гбайт (21%)
Язык : English

Текст #1
Идентификатор : 4
Формат : UTF-8
Идентификатор кодека : S_TEXT/UTF8
Идентификатор кодека/Информация : UTF-8 Plain Text
Заголовок : Voronin
Язык : Russian

Текст #2
Идентификатор : 5
Формат : UTF-8
Идентификатор кодека : S_TEXT/UTF8
Идентификатор кодека/Информация : UTF-8 Plain Text
Язык : English
Свернуть
Скриншоты

Изображение
Изображение
Изображение
Изображение
Изображение
Свернуть


Последний раз редактировалось askboy 2012-04-04 21:04, всего редактировалось 2 раз(а).
Не в сети
Профиль  
 Добавлено: 2012-04-04 20:31 (спустя 1 час 1 минута)
Стаж: 6 лет 5 месяцев
Сообщений: 11
Ура, дождался! А вот со скоростью полная труба! Автор! Раздавай!!!
Не в сети
Профиль  
Начать новую темуОтветить на тему  [ Сообщений: 2 ] 
Вы не можете начинать темы
Вы не можете отвечать на сообщения
Вы не можете редактировать свои сообщения
Вы не можете удалять свои сообщения