Правила форума

  • В этом разделе создание новых тем Запрещено.
  • Для создания новых тем пользуйтесь Корневым разделом DVD и HD фильмы.
Начать новую темуОтветить на тему  [ 1 сообщение ] 
Торрент файл
Размер: 9.92 GB • Зарегистрирован: 4 года 7 месяцев • Статус: Проверено
Скачан: 102 раза • Желающих скачать: 0 • Поблагодарили: 19 раз
 Раздают: 0  |  0 KB/s  ]   Качают: 0  |  0 KB/s  ] 
 Полного источника не было 3 года 2 месяца 
Сообщения
 Добавлено: 2012-04-05 13:57
Top-releaser
Аватара пользователя
Стаж: 7 лет 3 месяца
Возраст: 25
Сообщений: 1036
Спасибок: 2694
Лайков: 9
«Старый» Новый год
New Year's Eve


«Начинаем обратный отсчет»

Изображение


Год выхода: 2011
Страна: США

Жанр: мелодрама, комедия, ...
Продолжительность: 01:57:55
Перевод: Дублированное [лицензия]

Режиссер: Гэрри Маршалл
Сценарий: Кэтерин Фьюгейт
Продюсер: Ричард Бренер, Тоби Эммерих, Майк Карц
Оператор: Чарльз Мински
Композитор: Джон Дебни

В ролях: Холли Берри, Джессика Бил, Джон Бон Джови, Роберт Де Ниро, Джош Дюамель, Зак Эфрон, Гектор Элизондо, Кэтрин Хайгл

Описание: Герои фильма — жители города, который никогда не спит. Нью-Йорк накануне Нового года переплетет жизни нескольких героев: умирающего в больнице пожилого человека, секретаршу, решившую осуществить данные себе обещания, продюсера знаменитого новогоднего шоу на Таймс Сквер, человека, который вообще ненавидит этот праздник.

Изображение

Изображение

Бюджет: $56 000 000
Cборы в США: $54 544 638
Cборы в мире: + $87 500 000 = $142 044 638
Cборы в России: $4 336 363

Качество BDRip 1080p R5
Формат: Mkv

Видео: MPEG4 Video (H264) 1920x1080 23.98fps 9 900 Kbps
Аудио 1: Dolby AC3 48000Hz 6ch 448 Kbps
Аудио 2: Dolby AC3 48000Hz 6ch 1 510 Kbps
Аудио 3: Dolby AC3 48000Hz 6ch 192 Kbps
Subtitle: Utf-8

Изображение

MediaInfo
General
Unique ID : 184136623810886249774792938897670066928 (0x8A876C7BE6974F2CB4A42B5E942ED2F0)
Complete name : I:\Download\Staryj.Novyj.god.2011.D.BDRip.1080p.mkv
Format : Matroska
Format version : Version 2
File size : 9.92 GiB
Duration : 1h 57mn
Overall bit rate : 12.0 Mbps
Encoded date : UTC 2012-04-04 13:34:52
Writing application : mkvmerge v5.2.0 ('I can't explain') built on Dec 18 2011 18:12:03
Writing library : libebml v1.2.3 + libmatroska v1.3.0

Video
ID : 1
Format : AVC
Format/Info : Advanced Video Codec
Format profile : High@L4.1
Format settings, CABAC : Yes
Format settings, ReFrames : 4 frames
Codec ID : V_MPEG4/ISO/AVC
Duration : 1h 57mn
Bit rate : 9 900 Kbps
Width : 1 920 pixels
Height : 1 080 pixels
Display aspect ratio : 16:9
Frame rate : 23.976 fps
Color space : YUV
Chroma subsampling : 4:2:0
Bit depth : 8 bits
Scan type : Progressive
Bits/(Pixel*Frame) : 0.199
Stream size : 7.96 GiB (80%)
Writing library : x264 core 122 r2184+660+29 d9bb3b9 tMod+MixAQ [8-bit@4:2:0 X86_64]
Encoding settings : cabac=1 / ref=4 / deblock=1:-3:-3 / analyse=0x3:0x133 / me=umh / subme=10 / psy=1 / fade_compensate=0.00 / psy_rd=1.02:0.00 / mixed_ref=1 / me_range=64 / chroma_me=1 / trellis=2 / 8x8dct=1 / cqm=0 / deadzone=21,11 / fast_pskip=0 / chroma_qp_offset=-2 / threads=12 / sliced_threads=0 / nr=0 / decimate=0 / interlaced=0 / bluray_compat=0 / constrained_intra=0 / fgo=0 / bframes=8 / b_pyramid=2 / b_adapt=2 / b_bias=0 / direct=3 / weightb=1 / open_gop=0 / weightp=2 / keyint=240 / keyint_min=24 / scenecut=40 / intra_refresh=0 / rc=2pass / mbtree=0 / bitrate=9900 / ratetol=1.0 / qcomp=0.62 / qpmin=0 / qpmax=69 / qpstep=4 / cplxblur=20.0 / qblur=0.5 / ip_ratio=1.40 / pb_ratio=1.25 / aq=4 / aq-strength=1.00 / aq-sensitivity=10.00 / aq-ifactor=1.00 / aq-pfactor=1.00 / aq-bfactor=1.00 / aq2=0
Language : English
Default : Yes
Forced : No

Audio #1
ID : 2
Format : AC-3
Format/Info : Audio Coding 3
Mode extension : CM (complete main)
Codec ID : A_AC3
Duration : 1h 57mn
Bit rate mode : Constant
Bit rate : 448 Kbps
Channel(s) : 6 channels
Channel positions : Front: L C R, Side: L R, LFE
Sampling rate : 48.0 KHz
Bit depth : 16 bits
Compression mode : Lossy
Stream size : 378 MiB (4%)
Title : R5
Language : Russian
Default : Yes
Forced : No

Audio #2
ID : 3
Format : DTS
Format/Info : Digital Theater Systems
Codec ID : A_DTS
Duration : 1h 57mn
Bit rate mode : Constant
Bit rate : 1 510 Kbps
Channel(s) : 6 channels
Channel positions : Front: L C R, Side: L R, LFE
Sampling rate : 48.0 KHz
Bit depth : 24 bits
Compression mode : Lossy
Stream size : 1.24 GiB (13%)
Default : No
Forced : No

Audio #3
ID : 4
Format : AC-3
Format/Info : Audio Coding 3
Format profile : Dolby Digital
Mode extension : CM (complete main)
Codec ID : A_AC3
Duration : 1h 57mn
Bit rate mode : Constant
Bit rate : 192 Kbps
Channel(s) : 2 channels
Channel positions : Front: L R
Sampling rate : 48.0 KHz
Bit depth : 16 bits
Compression mode : Lossy
Stream size : 162 MiB (2%)
Default : No
Forced : No

Text #1
ID : 5
Format : UTF-8
Codec ID : S_TEXT/UTF8
Codec ID/Info : UTF-8 Plain Text
Language : English
Default : No
Forced : No

Text #2
ID : 6
Format : UTF-8
Codec ID : S_TEXT/UTF8
Codec ID/Info : UTF-8 Plain Text
Title : Romanian
Language : Romanian
Default : No
Forced : No

Text #3
ID : 7
Format : UTF-8
Codec ID : S_TEXT/UTF8
Codec ID/Info : UTF-8 Plain Text
Title : Romanian
Language : Romanian
Default : Yes
Forced : No

Menu
00:00:00.000 : en:00:00:00.000
00:09:24.147 : en:00:09:24.147
00:20:55.546 : en:00:20:55.546
00:29:31.979 : en:00:29:31.979
00:39:52.557 : en:00:39:52.557
00:49:09.947 : en:00:49:09.947
00:59:05.959 : en:00:59:05.959
01:09:57.235 : en:01:09:57.235
01:19:26.512 : en:01:19:26.512
01:29:40.625 : en:01:29:40.625
01:38:59.433 : en:01:38:59.433
01:48:19.410 : en:01:48:19.410


Свернуть
Скриншоты

Изображение
Изображение
Изображение
Изображение
Изображение

Свернуть
Не в сети
Профиль  
Начать новую темуОтветить на тему  [ 1 сообщение ] 
Вы не можете начинать темы
Вы не можете отвечать на сообщения
Вы не можете редактировать свои сообщения
Вы не можете удалять свои сообщения