Правила форума

  • В этом разделе создание новых тем Запрещено.
  • Для создания новых тем пользуйтесь Корневым разделом DVD и HD фильмы.
Начать новую темуОтветить на тему  [ Сообщений: 4 ] 
Торрент файл
Размер: 9.83 GB • Зарегистрирован: 2 года 10 месяцев • Статус: T Временный релиз
Скачан: 95 раз • Желающих скачать: 0 • Поблагодарили: 28 раз
 Раздают: 1  |  0 KB/s  ]   Качают: 0  |  0 KB/s  ] 
Сообщения
 Добавлено: 2014-01-21 22:27
Аватара пользователя
Стаж: 3 года 6 месяцев
Сообщений: 175
Спасибок: 4258
Лайков: 29
Starперцы / Last Vegas

МЫ - ЛЕГЕНДА


Изображение


Год выпуска: 2013
Страна: США (CBS Films, Gidden Media, Good Universe, Outlaw Sinema)
Жанр: Комедия, драма
Продолжительность: 01:44:59
Перевод: Профессиональный (многоголосый) [BaibaKo]

Режиссёр: Джон Тёртелтауб
В ролях: Майкл Дуглас, Роберт Де Ниро, Морган Фримен, Кевин Клайн, Мэри Стинберген, Джерри Феррара, Романи Малко, Роджер Барт, Джоанна Глисон, Майкл Или
Описание: Билли, Пэдди, Арчи и Сэм дружат больше полувека. И когда убежденный холостяк Билли наконец-то делает предложение своей юной подружке, великолепная четверка отправляется в Лас-Вегас, чтобы скинуть с себя груз прожитого и зажечь как в последний раз. Великовозрастные гуляки и не подозревают, как за десятилетия эволюционировал Город Грехов…
Изображение
Изображение

Качество: BDRip 1080p
Формат: MKV
Видео кодек: AVC
Аудио кодек: AC3 (Dolby Digital), DTS
Видео: MPEG-4 AVC, 11.4 Мбит/с, 1920x800, 23,976 кадр/сек
Аудио #1: AC3, 6 ch 448 Кбит/с, 48,0 КГц
Аудио #2: DTS, 6 ch, 1510 Кбит/с, 48,0 КГц
Скриншоты
Изображение
Изображение
Изображение
Изображение
Свернуть

MediaInfo
General
Unique ID : 233675952725788660034782186078069528409 (0xAFCC59F987C63367992CB012CF5F1759)
Complete name : F:\ФИЛЬМЫ\Last.Vegas.2013.BDRip.1080p.x264.mkv
Format : Matroska
Format version : Version 2
File size : 9.83 GiB
Duration : 1h 45mn
Overall bit rate : 13.3 Mbps
Movie name : Last.Vegas.2013.BluRay.1080p.DTS.x264-CHD
Encoded date : UTC 2014-01-16 17:06:19
Writing application : mkvmerge v6.7.0 ('Back to the Ground') 64bit built on Jan 8 2014 15:10:52
Writing library : libebml v1.3.0 + libmatroska v1.4.1

Video
ID : 1
Format : AVC
Format/Info : Advanced Video Codec
Format profile : High@L4.1
Format settings, CABAC : Yes
Format settings, ReFrames : 5 frames
Codec ID : V_MPEG4/ISO/AVC
Duration : 1h 45mn
Bit rate : 11.4 Mbps
Width : 1 920 pixels
Height : 800 pixels
Display aspect ratio : 2.40:1
Frame rate mode : Constant
Frame rate : 23.976 fps
Color space : YUV
Chroma subsampling : 4:2:0
Bit depth : 8 bits
Scan type : Progressive
Bits/(Pixel*Frame) : 0.310
Stream size : 8.18 GiB (83%)
Title : hahay0yo@CHD
Writing library : x264 core 138 r2356 a1d3d17
Encoding settings : cabac=1 / ref=5 / deblock=1:-3:-3 / analyse=0x3:0x113 / me=umh / subme=10 / psy=1 / psy_rd=1.00:0.05 / mixed_ref=1 / me_range=32 / chroma_me=1 / trellis=2 / 8x8dct=1 / cqm=0 / deadzone=21,11 / fast_pskip=0 / chroma_qp_offset=-2 / threads=18 / lookahead_threads=1 / sliced_threads=0 / nr=0 / decimate=1 / interlaced=0 / bluray_compat=0 / constrained_intra=0 / bframes=6 / b_pyramid=2 / b_adapt=2 / b_bias=0 / direct=3 / weightb=1 / open_gop=0 / weightp=2 / keyint=250 / keyint_min=23 / scenecut=40 / intra_refresh=0 / rc=2pass / mbtree=0 / bitrate=11430 / ratetol=1.0 / qcomp=0.70 / qpmin=0 / qpmax=69 / qpstep=4 / cplxblur=20.0 / qblur=0.5 / ip_ratio=1.40 / pb_ratio=1.30 / aq=2:1.00
Language : English
Default : Yes
Forced : No

Audio #1
ID : 2
Format : AC-3
Format/Info : Audio Coding 3
Mode extension : CM (complete main)
Format settings, Endianness : Big
Codec ID : A_AC3
Duration : 1h 45mn
Bit rate mode : Constant
Bit rate : 448 Kbps
Channel(s) : 6 channels
Channel positions : Front: L C R, Side: L R, LFE
Sampling rate : 48.0 KHz
Bit depth : 16 bits
Compression mode : Lossy
Stream size : 340 MiB (3%)
Language : Russian
Default : Yes
Forced : No

Audio #2
ID : 3
Format : DTS
Format/Info : Digital Theater Systems
Mode : 16
Format settings, Endianness : Big
Codec ID : A_DTS
Duration : 1h 45mn
Bit rate mode : Constant
Bit rate : 1 509 Kbps
Channel(s) : 6 channels
Channel positions : Front: L C R, Side: L R, LFE
Sampling rate : 48.0 KHz
Bit depth : 24 bits
Compression mode : Lossy
Stream size : 1.12 GiB (11%)
Title : English DTS 5.1 1509Kbps
Language : English
Default : No
Forced : No

Menu
00:00:00.000 : en:00:00:00.000
00:03:03.391 : en:00:03:03.391
00:10:25.458 : en:00:10:25.458
00:20:38.862 : en:00:20:38.862
00:29:31.102 : en:00:29:31.102
00:41:30.154 : en:00:41:30.154
00:49:40.060 : en:00:49:40.060
00:57:18.977 : en:00:57:18.977
01:05:28.633 : en:01:05:28.633
01:10:08.078 : en:01:10:08.078
01:14:33.302 : en:01:14:33.302
01:18:06.682 : en:01:18:06.682
01:21:23.378 : en:01:21:23.378
01:27:03.134 : en:01:27:03.134
01:34:43.386 : en:01:34:43.386
01:40:51.045 : en:01:40:51.045
Свернуть

Изображение
Не в сети
Профиль  
 Добавлено: 2014-01-23 07:36 (спустя 1 день 9 часов)
Аватара пользователя
Стаж: 8 лет 8 месяцев
Возраст: 24
Сообщений: 160
Спасибок: 857
как перевод?
Не в сети
Профиль  
 Добавлено: 2014-01-23 20:11 (спустя 12 часов)
Аватара пользователя
Стаж: 7 лет 9 месяцев
Сообщений: 14
да как перевод? кто смотрел отпишитесь.
Не в сети
Профиль  
 Добавлено: 2014-01-23 21:12 (спустя 1 час 1 минута)
Аватара пользователя
Стаж: 8 лет 11 месяцев
Сообщений: 118
Спасибок: 189
плюсую за перевод, семпл бы
Не в сети
Профиль  
Начать новую темуОтветить на тему  [ Сообщений: 4 ] 
Вы не можете начинать темы
Вы не можете отвечать на сообщения
Вы не можете редактировать свои сообщения
Вы не можете удалять свои сообщения