Правила форума

  • В этом разделе создание новых тем Запрещено.
  • Для создания новых тем пользуйтесь Корневым разделом DVD и HD фильмы.
Начать новую темуОтветить на тему  [ Сообщений: 3 ] 
Торрент файл
Размер: 29.11 GB • Зарегистрирован: 3 года 2 месяца • Статус: Проверено
Скачан: 62 раза • Желающих скачать: 0 • Поблагодарили: 22 раза
 Раздают: 0  |  0 KB/s  ]   Качают: 0  |  0 KB/s  ] 
 Полного источника не было 1 год 1 месяц 
Сообщения
 Добавлено: 2013-09-10 17:54
Top-releaser
Аватара пользователя
Стаж: 8 лет 9 месяцев
Сообщений: 479
Спасибок: 20187
Лайков: 16
Изображение

Изображение

Star Trek Into Darkness


«Beyond the darkness, lies greatness.»

Год выпуска: 2013
Страна: Изображение США; Bad Robot, Kurtzman/Orci, Изображение Paramount Pictures, Skydance Productions
Жанр: Фантастика, боевик, приключения
Продолжительность: 02:12:06
Перевод: Профессиональный (дублированный), Оригинал
Субтитры: Русские, английские, французские

Режиссёр: Джей Джей Абрамс / J.J. Abrams

В ролях: Крис Пайн, Закари Куинто, Зои Салдана, Карл Урбан, Бенедикт Камбербэтч, Саймон Пегг, Элис Ив, Антон Ельчин, Джон Чо, Питер Уэллер

Описание: Вернувшись на Землю, команда корабля «Энтерпрайз» обнаруживает, что деятельность и принципы их организации подорваны изнутри. Флот скован необъяснимым ужасом и бездействует, пока мир все глубже погружается в бездну.

Капитан Кирк берет на себя руководство операцией по поимке злодея, ответственного за этот хаос и способного уничтожить все человечество.

В запутанной игре не на жизнь, а на смерть, любовь и дружба будут принесены в жертву ради единственного, что осталось у Кирка — его команды.



Качество: Blu-Ray Remux 1080p
Формат: MKV

Видео: MPEG-4 AVC, 26.2 Мбит/с, 1920x1080, 23.976 кадр/с

Аудио 1: AC-3 at 384 Кбит/сек, 6 канала(ов), 48,0 КГц [Дубляж]
Аудио 2: TrueHD, 8 ch, 4342 Кбит/с [Оригинал]
Аудио 3: AC-3 at 640 Кбит/сек, 6 канала(ов), 48,0 КГц [Оригинал]
Раздача: Изображение

Изображение

Изображение
MediaInfo

Общее
Уникальный идентификатор : 194902521730754498830503722593970471885 (0x92A0DC3B8EDF4B428414BD15926AC3CD)
Полное имя : C:\Users\Домашний\Desktop\Star.Trek.Into.Darkness.(2013).BDRemux.1080p.[nntt].mkv
Формат : Matroska
Размер файла : 29,1 Гбайт
Продолжительность : 2 ч. 12 м.
Общий поток : 31,5 Мбит/сек
Название фильма : Star Trek Into Darkness (2013) / Lelya_K for NNM-Club
Дата кодирования : UTC 2013-09-09 19:38:17
Программа кодирования : mkvmerge v6.3.0 ('You can't stop me!') built on Jun 28 2013 20:09:41
Библиотека кодирования : libebml v1.3.0 + libmatroska v1.4.0

Видео
Идентификатор : 1
Формат : AVC
Формат/Информация : Advanced Video Codec
Профиль формата : High@L4.1
Параметр CABAC формата : Да
Параметр ReFrames формата : 4 кадры
Параметры GOP формата : M=2, N=25
Идентификатор кодека : V_MPEG4/ISO/AVC
Продолжительность : 2 ч. 12 м.
Вид битрейта : Переменный
Максимальный битрейт : 31,7 Мбит/сек
Ширина : 1920 пикс.
Высота : 1080 пикс.
Соотношение сторон : 16:9
Частота кадров : 23,976 кадр/сек
Цветовое пространство : YUV
Подвыборка цветности : 4:2:0
Битовая глубина : 8 бит
Тип развёртки : Прогрессивная
Заголовок : Стартрек.Возмездие-Star.Trek.Into.Darkness.(2013).BDRemux.[1080p]
Язык : English

Аудио #1
Идентификатор : 2
Формат : AC-3
Формат/Информация : Audio Coding 3
Расширение режима : CM (complete main)
Идентификатор кодека : A_AC3
Продолжительность : 2 ч. 12 м.
Вид битрейта : Постоянный
Битрейт : 384 Кбит/сек
Канал(ы) : 6 канала(ов)
Расположение каналов : Front: L C R, Side: L R, LFE
Частота : 48,0 КГц
Битовая глубина : 16 бит
Метод сжатия : С потерями
Размер потока : 363 Мбайт (1%)
Язык : Russian

Аудио #2
Идентификатор : 3
Формат : TrueHD
Идентификатор кодека : A_TRUEHD
Продолжительность : 2 ч. 12 м.
Вид битрейта : Переменный
Максимальный битрейт : 6510 Кбит/сек
Канал(ы) : 8 канала(ов)
Расположение каналов : Front: L C R, Side: L R, Back: L R, LFE
Частота : 48,0 КГц
Метод сжатия : Без потерь
Заголовок : TrueHD 7.1 / 4342 kbps / Original
Язык : English

Аудио #3
Идентификатор : 4
Формат : AC-3
Формат/Информация : Audio Coding 3
Расширение режима : CM (complete main)
Идентификатор кодека : A_AC3
Продолжительность : 2 ч. 12 м.
Вид битрейта : Постоянный
Битрейт : 640 Кбит/сек
Канал(ы) : 6 канала(ов)
Расположение каналов : Front: L C R, Side: L R, LFE
Частота : 48,0 КГц
Битовая глубина : 16 бит
Метод сжатия : С потерями
Размер потока : 605 Мбайт (2%)
Заголовок : AC3 5.1 / 640 kbps / Descriptive
Язык : English

Текст #1
Идентификатор : 5
Формат : UTF-8
Идентификатор кодека : S_TEXT/UTF8
Идентификатор кодека/Информация : UTF-8 Plain Text
Заголовок : Full
Язык : Russian

Текст #2
Идентификатор : 6
Формат : UTF-8
Идентификатор кодека : S_TEXT/UTF8
Идентификатор кодека/Информация : UTF-8 Plain Text
Заголовок : Full
Язык : English

Текст #3
Идентификатор : 7
Формат : UTF-8
Идентификатор кодека : S_TEXT/UTF8
Идентификатор кодека/Информация : UTF-8 Plain Text
Заголовок : SDH
Язык : English

Текст #4
Идентификатор : 8
Формат : UTF-8
Идентификатор кодека : S_TEXT/UTF8
Идентификатор кодека/Информация : UTF-8 Plain Text
Язык : French

Меню
00:00:00.000 : en:Chapter 1
00:10:20.369 : en:Chapter 2
00:19:21.493 : en:Chapter 3
00:30:03.968 : en:Chapter 4
00:40:09.115 : en:Chapter 5
00:46:05.262 : en:Chapter 6
00:56:38.228 : en:Chapter 7
01:06:35.783 : en:Chapter 8
01:12:55.662 : en:Chapter 9
01:22:45.752 : en:Chapter 10
01:30:54.740 : en:Chapter 11
01:38:36.368 : en:Chapter 12
01:47:09.548 : en:Chapter 13
01:54:17.141 : en:Chapter 14
01:59:20.653 : en:Chapter 15
02:03:18.307 : en:Chapter 16


Свернуть
Скриншоты

Изображение
Изображение
Изображение
Изображение
Изображение
Изображение
Свернуть
_________________
Изображение
Изображение
Не в сети
Профиль  
 Добавлено: 2013-09-10 20:09 (спустя 2 часа 15 минут)
Top-seeder
Аватара пользователя
Стаж: 6 лет 4 месяца
Сообщений: 532
Спасибок: 653
Лайков: 5
[Дубляж] который здесь, отличается от [Дубляж] - iTunes Russia, который например тут ?
Не в сети
Профиль  
 Добавлено: 2013-09-10 20:29 (спустя 19 минут)
Top-releaser
Аватара пользователя
Стаж: 8 лет 9 месяцев
Сообщений: 479
Спасибок: 20187
Лайков: 16

P060T:

[Дубляж] который здесь, отличается от [Дубляж] - iTunes Russia, который например тут ?
Тот же самый.
_________________
Изображение
Изображение
Не в сети
Профиль  
Начать новую темуОтветить на тему  [ Сообщений: 3 ] 
Вы не можете начинать темы
Вы не можете отвечать на сообщения
Вы не можете редактировать свои сообщения
Вы не можете удалять свои сообщения