Правила форума

  • В этом разделе создание новых тем Запрещено.
  • Для создания новых тем пользуйтесь Корневым разделом DVD и HD фильмы.
Начать новую темуОтветить на тему  [ 1 сообщение ] 
Торрент файл
Размер: 4.92 GB • Зарегистрирован: 4 года 7 месяцев • Статус: Проверено
Скачан: 104 раза • Желающих скачать: 0 • Поблагодарили: 13 раз
 Раздают: 1  |  0 KB/s  ]   Качают: 0  |  0 KB/s  ] 
Сообщения
 Добавлено: 2012-04-30 08:57
Инквизитор
Аватара пользователя
Стаж: 8 лет 8 месяцев
Сообщений: 3753
Спасибок: 28359
Лайков: 9
Изображение

Стыд / Shame


Год выпуска: 2011
Страна: Великобритания
Жанр: драма
Продолжительность: 01:41:08
Перевод: Оригинальный, Профессиональный (полное дублирование)
Режиссер: Стив МакКуин
Сценарий: Стив МакКуин, Эби Морган
Продюсер: Эйн Каннинг, Эмиль Шерман, Питер Хэмпден
Оператор: Шон Боббитт
Композитор: Гарри Эскотт
В ролях: Майкл Фассбендер, Кэри Маллиган, Джеймс Бэдж Дэйл, Николь Бихэйр, Алекс Манетт, Люсиль Уолтерс, Мари-Анхе Рамирес, Ханна Уэр, Элизабет Масуччи, Рэйчел Фаррар
Бюджет: $6 500 000
Сборы в США: $3 909 002
Сборы в России: $422 561
Сборы в мире: $17 693 675
Описание: Главный герой - житель Нью-Йорка, страдающий от эротомании и неспособный контролировать свою сексуальную жизнь. Он пытается обрести поддержку своих родных, а также ищет помощи у сотрудников.
Изображение
MPAA:
Мировая премьера: 4 сентября 2011
Релиз на DVD: 26 апреля 2012, «Новый Диск»
Релиз, раздача группы: Изображение, Изображение
Качество: BDRip, 720p
Формат: Matroska
Видео: AVC; 1280x544 (2.35:1); 4861 Kbps; 23,976 fps; 0,291 bit/pixel
Аудио №1: Russian; AC3; 448 Kbps; CBR; 6 ch
Аудио №2: DTS; 1509 Kbps; CBR; 6 ch; 24 bit

Субтитры №1: Russian
Субтитры №2: English

"Знаете ли Вы, что..."
  • Фильм был снят за 25 дней.
  • Несмотря на бюджет в 6.5 млн. долларов, кинокомпания Fox Searchlight Pictures заплатила лишь 600 тыс. долларов за прокат фильма.
  • Сцена, где Брэндон слышит, как его сестра поет в ресторане, была снята в режиме реального времени. Так как Джеймс Бэдж Дэйл и Майкл Фассбендер никогда до этого не слышали ее голос, их реакция была настоящей. Сцена снималась в 3 часа ночи, а камеры были сфокусированы на трех главных персонажах.
Свернуть
M.I.
Общее
Уникальный идентификатор                 : 197585229131748289279703487903200309200 (0x94A587EB60F5E0DF9BEB3DE372A5EFD0)
Полное имя                               : E:\Фильмы\Shame.2011.720p.BluRay.Rus.Eng.HDclub.EncoderN1.mkv
Формат                                   : Matroska
Версия формата                           : Version 2
Размер файла                             : 4,92 Гбайт
Продолжительность                        : 1 ч. 41 м.
Общий поток                              : 6958 Кбит/сек
Название фильма                          : Release by HDCLUB @ EncoderN1
Дата кодирования                         : UTC 2012-04-29 09:36:04
Программа кодирования                    : mkvmerge v5.0.1 ('Es ist Sommer') built on Oct 24 2011 19:45:06
Библиотека кодирования                   : libebml v1.2.2 + libmatroska v1.3.0

Видео
Идентификатор                            : 1
Формат                                   : AVC
Формат/Информация                        : Advanced Video Codec
Профиль формата                          : High@L4.1
Параметр CABAC формата                   : Да
Параметр ReFrames формата                : 11 кадров
Идентификатор кодека                     : V_MPEG4/ISO/AVC
Продолжительность                        : 1 ч. 41 м.
Битрейт                                  : 5000 Кбит/сек
Ширина                                   : 1280 пикселей
Высота                                   : 544 пикселя
Соотношение сторон                       : 2,35:1
Частота кадров                           : 23,976 кадра/сек
Цветовое пространство                    : YUV
Субдискретизация насыщенности            : 4:2:0
Битовая глубина                          : 8 бит
Тип развёртки                            : Прогрессивная
Бит/(Пиксели*Кадры)                      : 0.299
Размер потока                            : 3,43 Гбайт (70%)
Библиотека кодирования                   : x264 core 119 r2106 07efeb4
Настройки программы                      : cabac=1 / ref=11 / deblock=1:-2:-2 / analyse=0x3:0x113 / me=umh / subme=10 / psy=1 / psy_rd=1.00:0.00 / mixed_ref=1 / me_range=48 / chroma_me=1 / trellis=2 / 8x8dct=1 / cqm=0 / deadzone=21,11 / fast_pskip=0 / chroma_qp_offset=-2 / threads=6 / sliced_threads=0 / nr=0 / decimate=1 / interlaced=0 / bluray_compat=0 / constrained_intra=0 / bframes=8 / b_pyramid=2 / b_adapt=2 / b_bias=0 / direct=3 / weightb=1 / open_gop=0 / weightp=2 / keyint=240 / keyint_min=24 / scenecut=40 / intra_refresh=0 / rc_lookahead=80 / rc=2pass / mbtree=1 / bitrate=5000 / ratetol=1.0 / qcomp=0.60 / qpmin=0 / qpmax=69 / qpstep=4 / cplxblur=20.0 / qblur=0.5 / ip_ratio=1.40 / aq=1:1.00
Язык                                     : English
Default                                  : Да
Forced                                   : Нет

Аудио #1
Идентификатор                            : 2
Формат                                   : AC-3
Формат/Информация                        : Audio Coding 3
Расширение режима                        : CM (complete main)
Идентификатор кодека                     : A_AC3
Продолжительность                        : 1 ч. 41 м.
Вид битрейта                             : Постоянный
Битрейт                                  : 448 Кбит/сек
Каналы                                   : 6 каналов
Расположение каналов                     : Front: L C R, Side: L R, LFE
Частота                                  : 48,0 КГц
Битовая глубина                          : 16 бит
Метод сжатия                             : С потерями
Размер потока                            : 324 Мбайт (6%)
Заголовок                                : Dub - R5
Язык                                     : Russian
Default                                  : Да
Forced                                   : Нет

Аудио #2
Идентификатор                            : 3
Формат                                   : DTS
Формат/Информация                        : Digital Theater Systems
Идентификатор кодека                     : A_DTS
Продолжительность                        : 1 ч. 41 м.
Вид битрейта                             : Постоянный
Битрейт                                  : 1510 Кбит/сек
Каналы                                   : 6 каналов
Расположение каналов                     : Front: L C R, Side: L R, LFE
Частота                                  : 48,0 КГц
Битовая глубина                          : 24 бит
Метод сжатия                             : С потерями
Размер потока                            : 1,07 Гбайт (22%)
Заголовок                                : Original
Язык                                     : English
Default                                  : Нет
Forced                                   : Нет

Текст #1
Идентификатор                            : 4
Формат                                   : UTF-8
Идентификатор кодека                     : S_TEXT/UTF8
Идентификатор кодека/Информация          : UTF-8 Plain Text
Заголовок                                : Full (ak79)
Язык                                     : Russian
Default                                  : Да
Forced                                   : Нет

Текст #2
Идентификатор                            : 5
Формат                                   : UTF-8
Идентификатор кодека                     : S_TEXT/UTF8
Идентификатор кодека/Информация          : UTF-8 Plain Text
Заголовок                                : SDH
Язык                                     : English
Default                                  : Нет
Forced                                   : Нет

Меню
00:00:00.000                             : en:00:00:00.000
00:09:10.216                             : en:00:09:10.216
00:11:11.421                             : en:00:11:11.421
00:12:51.020                             : en:00:12:51.020
00:18:38.534                             : en:00:18:38.534
00:22:56.083                             : en:00:22:56.083
00:24:57.705                             : en:00:24:57.705
00:26:25.793                             : en:00:26:25.793
00:28:57.194                             : en:00:28:57.194
00:34:04.084                             : en:00:34:04.084
00:37:18.153                             : en:00:37:18.153
00:42:53.488                             : en:00:42:53.488
00:46:00.132                             : en:00:46:00.132
00:53:37.297                             : en:00:53:37.297
00:56:35.225                             : en:00:56:35.225
01:00:27.958                             : en:01:00:27.958
01:08:03.830                             : en:01:08:03.830
01:09:49.560                             : en:01:09:49.560
01:16:04.977                             : en:01:16:04.977
01:22:47.588                             : en:01:22:47.588
01:26:36.233                             : en:01:26:36.233
01:31:31.277                             : en:01:31:31.277
01:34:37.297                             : en:01:34:37.297
01:36:23.778                             : en:01:36:23.778
Свернуть
Скриншоты

Изображение
Изображение
Изображение
Изображение
Свернуть

Не в сети
Профиль  
Начать новую темуОтветить на тему  [ 1 сообщение ] 
Вы не можете начинать темы
Вы не можете отвечать на сообщения
Вы не можете редактировать свои сообщения
Вы не можете удалять свои сообщения