Правила форума

  • В этом разделе создание новых тем Запрещено.
  • Для создания новых тем пользуйтесь Корневым разделом DVD и HD фильмы.
Начать новую темуОтветить на тему  [ 1 сообщение ] 
Торрент файл
Размер: 10.19 GB • Зарегистрирован: 5 лет 2 месяца • Статус: Проверено
Скачан: 29 раз • Желающих скачать: 0 • Поблагодарили: 4 раза
 Раздают: 0  |  0 KB/s  ]   Качают: 0  |  0 KB/s  ] 
 Полного источника не было 14 дней 
Сообщения
 Добавлено: 2011-09-08 14:52
Модератор релиз-группы
Аватара пользователя
Стаж: 9 лет 1 месяц
Возраст: 97
Сообщений: 11659
Спасибок: 6530
Лайков: 269
Столкновение с бездной / Deep Impact


Изображение


Год выпуска: 1998
Страна: США
Жанр: фантастика, боевик, триллер, драма
Продолжительность: 02:01:12
Перевод:Профессиональный (многоголосый, закадровый)
Профессиональный (полное дублирование)
Оригинальная звуковая дорожка
Субтитры: (русские, английские)

Режиссер: Мими Ледер
Сценарий: Брюс Джоэл Рубин, Майкл Толкин
Продюсер: Джоан Брэдшоу, Дэвид Браун, Д. Скотт Истон,
Оператор: Дитрих Ломанн
Композитор: Джеймс Хорнер, Барт Ховард, Джакомо Пуччини

В ролях: Роберт Дювалл, Теа Леони, Элайджа Вуд, Ванесса Редгрейв, Морган Фриман, Максимилиан Шелл, Джеймс Кромуэлл, Рон Элдард, Джон Фавро, Лора Иннес, Александр Балуев

Описание: Земле грозит неизбежное столкновением с кометой, что приведет к гибели всего живого. Президент США сообщает миру, что до «столкновения с бездной» остается год. На комету отправляют корабль «Мессия» который должен взорвать комету. Но от взрыва комета разлетается на две части. Ничто не может спасти человечество. Как поведут себя люди?…
В отличие от большинства фильмов с подобным сюжетом в картине Мими Ледер во главу угла ставится вовсе не комета и не спецэффекты (кстати, говоря - великолепные, как обычно у ILM), но люди, человеческие взаимоотношения в столь сложной ситуации. Фильм поражает до глубины души именно искренностью и теплотой, которые остаются в человеческом сердце даже перед лицом неизбежной гибели.


Изображение
Качество: BDRip
Формат: mkv
Видео кодек: MPEG-4
Аудио кодек: DTS,AC3
Видео: x264, 2pass, L4.1, 1920x816 (2.35:1), 23.976 fps, 9614 Kbps
Аудио 1: Русский DTS 5.1 1536 kbps 48kHz (профессиональный закадровый перевод)
Аудио 2: Русский AC3 2.0 192 kbps 48kHz (дубляж)
Аудио 3: Английский AC3 5.1 640kbps 48kHz(Оригинальная звуковая дорожка )
Аудио 4: Vorbis 2.0 80 Kbps 48kHz (комментарии)
"Скриншоты"

Изображение

Изображение

Изображение

Изображение

Изображение
Свернуть

Mi
Format : Matroska
Format version : Version 2
File size : 10.2 GiB
Duration : 2h 1mn
Overall bit rate : 12.0 Mbps
Encoded date : UTC 2010-01-04 13:08:01
Writing application : mkvmerge v2.9.8 ('C'est le bon') built on Aug 24 2009 17:34:03
Writing library : libebml v0.7.7 + libmatroska v0.8.1
Attachment : Yes / Yes / Yes

Video
ID : 1
Format : AVC
Format/Info : Advanced Video Codec
Format profile : High@L4.1
Format settings, CABAC : Yes
Format settings, ReFrames : 5 frames
Codec ID : V_MPEG4/ISO/AVC
Duration : 2h 1mn
Bit rate : 9 614 Kbps
Width : 1 920 pixels
Height : 816 pixels
Display aspect ratio : 2.35:1
Frame rate : 23.976 fps
Color space : YUV
Chroma subsampling : 4:2:0
Bit depth : 8 bits
Scan type : Progressive
Bits/(Pixel*Frame) : 0.256
Stream size : 7.93 GiB (78%)
Title : 9.6 Mbps MPEG-4 AVC
Writing library : x264 core 77 r1280M 5cda2cf
Encoding settings : cabac=1 / ref=5 / deblock=1:-3:-3 / analyse=0x3:0x133 / me=esa / subme=9 / psy=1 / psy_rd=1.2:0.0 / mixed_ref=1 / me_range=24 / chroma_me=1 / trellis=2 / 8x8dct=1 / cqm=0 / deadzone=21,11 / chroma_qp_offset=-2 / threads=6 / nr=0 / decimate=0 / mbaff=0 / constrained_intra=0 / bframes=6 / b_pyramid=0 / b_adapt=2 / b_bias=0 / direct=3 / wpredb=1 / keyint=250 / keyint_min=25 / scenecut=40 / rc_lookahead=40 / rc=2pass / mbtree=1 / bitrate=9614 / ratetol=1.0 / qcomp=0.60 / qpmin=10 / qpmax=51 / qpstep=4 / cplxblur=20.0 / qblur=0.5 / vbv_maxrate=30000 / vbv_bufsize=30000 / ip_ratio=1.40 / aq=1:1.00
Language : English

Audio #1
ID : 2
Format : DTS
Format/Info : Digital Theater Systems
Codec ID : A_DTS
Duration : 2h 1mn
Bit rate mode : Constant
Bit rate : 1 510 Kbps
Channel(s) : 6 channels
Channel positions : Front: L C R, Side: L R, LFE
Sampling rate : 48.0 KHz
Bit depth : 24 bits
Compression mode : Lossy
Stream size : 1.28 GiB (13%)
Title : Rus.MVO.DTS.5.1
Language : Russian

Audio #2
ID : 3
Format : AC-3
Format/Info : Audio Coding 3
Mode extension : CM (complete main)
Codec ID : A_AC3
Duration : 2h 1mn
Bit rate mode : Constant
Bit rate : 192 Kbps
Channel(s) : 2 channels
Channel positions : Front: L R
Sampling rate : 48.0 KHz
Bit depth : 16 bits
Compression mode : Lossy
Stream size : 166 MiB (2%)
Title : Rus.Dub.AC3.2.0
Language : Russian

Audio #3
ID : 4
Format : AC-3
Format/Info : Audio Coding 3
Mode extension : CM (complete main)
Codec ID : A_AC3
Duration : 2h 1mn
Bit rate mode : Constant
Bit rate : 640 Kbps
Channel(s) : 6 channels
Channel positions : Front: L C R, Side: L R, LFE
Sampling rate : 48.0 KHz
Bit depth : 16 bits
Compression mode : Lossy
Stream size : 555 MiB (5%)
Title : AC3 5.1 @ 640 Kbps
Language : English

Audio #4
ID : 7
Format : Vorbis
Format settings, Floor : 1
Codec ID : A_VORBIS
Duration : 2h 1mn
Bit rate mode : Variable
Bit rate : 80.0 Kbps
Channel(s) : 2 channels
Sampling rate : 48.0 KHz
Compression mode : Lossy
Stream size : 69.3 MiB (1%)
Title : Commentary OGG 2.0 @ 80 Kbps
Writing library : libVorbis 1.2 (UTC 2007-06-22)
Language : English

Text #1
ID : 5
Format : UTF-8
Codec ID : S_TEXT/UTF8
Codec ID/Info : UTF-8 Plain Text
Language : Russian

Text #2
ID : 6
Format : ASS
Codec ID : S_TEXT/ASS
Codec ID/Info : Advanced Sub Station Alpha
Compression mode : Lossless
Language : English

Menu
00:00:00.000 : en:01
00:02:37.616 : en:02
00:07:01.755 : en:03
00:10:53.945 : en:04
00:17:10.988 : en:05
00:20:37.862 : en:06
00:22:21.632 : en:07
00:25:28.026 : en:08
00:35:00.932 : en:09
00:39:13.268 : en:10
00:43:58.886 : en:11
00:51:49.023 : en:12
00:56:17.541 : en:13
01:00:15.779 : en:14
01:05:01.815 : en:15
01:09:42.220 : en:16
01:13:53.346 : en:17
01:18:10.603 : en:18
01:20:08.303 : en:19
01:22:52.467 : en:20
01:25:20.324 : en:21
01:27:46.845 : en:22
01:31:53.591 : en:23
01:34:23.074 : en:24
01:38:45.044 : en:25
01:40:55.424 : en:26
01:43:22.279 : en:27
01:46:15.119 : en:28
01:51:43.488 : en:29
01:53:23.839 : en:30

Свернуть
_________________
Изображение
Не в сети
Профиль  
Начать новую темуОтветить на тему  [ 1 сообщение ] 
Вы не можете начинать темы
Вы не можете отвечать на сообщения
Вы не можете редактировать свои сообщения
Вы не можете удалять свои сообщения