Правила форума

  • В этом разделе создание новых тем Запрещено.
  • Для создания новых тем пользуйтесь Корневым разделом DVD и HD фильмы.
Начать новую темуОтветить на тему  [ 1 сообщение ] 
Торрент файл
Размер: 4.49 GB • Зарегистрирован: 3 года 11 месяцев • Статус: Проверено
Скачан: 48 раз • Желающих скачать: 0 • Поблагодарили: 10 раз
 Раздают: 0  |  0 KB/s  ]   Качают: 0  |  0 KB/s  ] 
 Полного источника не было 8 месяцев 
Сообщения
 Добавлено: 2012-12-22 20:22
Модератор
Аватара пользователя
Стаж: 6 лет 10 месяцев
Возраст: 33
Сообщений: 5908
Спасибок: 61252
Лайков: 3540
Изображение

Столкновение Земли
Collision Earth


Год выпуска: 2011
Страна: Канада
Жанр: фантастика, боевик, триллер
Продолжительность: 01:22:24
Перевод: Профессиональный (многоголосый, закадровый)
Режиссер: Пол Зиллер
Сценарий: Ryan Landels
Продюсер: Джон Принц, Жози Бернард, Том Берри, Лиза М. Хансен, Пол Хертцберг
Оператор: Том Хартинг
Композитор: Майк Нилсон
В ролях: Кирк Асеведо, Дайан Фарр, Чад Кровчук, Джессика Паркер Кеннеди, Адам Рейд, Эндрю Эйрли, Дэвид Льюис, Дуглас Чэпман, Кэтрин Лок Хэггквист, Кеван Охтци, Хуан Ридингер

Мировая премьера: 26 марта 2011
Описание: Космический корабль выброшен с орбиты и направлен на столкновение с Землей. Опальный ученый должен попытаться спасти планету.

Изображение User Rating: 5.714 (28)
Изображение User Rating: 3.40 (351)
MPAA: PG - Рекомендуется присутствие родителей
Раздача группы: Изображение
Изображение
Качество: BDRip, 720p
Формат: Matroska
Видео: MPEG-4 AVC, 6291 Кбит/с, 1280x720
Аудио №1: Russian: AC3, 192 kb/s (2 ch) / English: AC3, 640 kb/s (6 ch)
Субтитры №1: Russian
Субтитры №2:

mediainfo
General
Unique ID : 210764370617249903322334694797756631604 (0x9E8FBDC3186A1F63B76D4587439C8A34)
Complete name : Stolknovenije.zemli.2012.P.BDRip.720p.mkv
Format : Matroska
Format version : Version 2
File size : 4.49 GiB
Duration : 1h 30mn
Overall bit rate : 7 125 Kbps
Encoded date : UTC 2012-12-21 19:56:00
Writing application : mkvmerge v5.2.0 ('I can't explain') built on Dec 18 2011 18:12:03
Writing library : libebml v1.2.3 + libmatroska v1.3.0

Video
ID : 1
Format : AVC
Format/Info : Advanced Video Codec
Format profile : High@L4.1
Format settings, CABAC : Yes
Format settings, ReFrames : 5 frames
Codec ID : V_MPEG4/ISO/AVC
Duration : 1h 30mn
Bit rate : 6 291 Kbps
Width : 1 280 pixels
Height : 720 pixels
Display aspect ratio : 16:9
Frame rate : 23.976 fps
Color space : YUV
Chroma subsampling : 4:2:0
Bit depth : 8 bits
Scan type : Progressive
Bits/(Pixel*Frame) : 0.285
Stream size : 3.88 GiB (86%)
Title : Collision.Earth.2011.720p.BluRay.x264-BRMP
Writing library : x264 core 129 r2230 1cffe9f
Encoding settings : cabac=1 / ref=5 / deblock=1:0:0 / analyse=0x3:0x133 / me=umh / subme=7 / psy=1 / psy_rd=1.00:0.00 / mixed_ref=1 / me_range=16 / chroma_me=1 / trellis=1 / 8x8dct=1 / cqm=0 / deadzone=21,11 / fast_pskip=0 / chroma_qp_offset=-2 / threads=12 / lookahead_threads=2 / sliced_threads=0 / nr=0 / decimate=1 / interlaced=0 / bluray_compat=0 / constrained_intra=0 / bframes=3 / b_pyramid=2 / b_adapt=1 / b_bias=0 / direct=1 / weightb=1 / open_gop=0 / weightp=2 / keyint=240 / keyint_min=23 / scenecut=40 / intra_refresh=0 / rc_lookahead=40 / rc=2pass / mbtree=1 / bitrate=6291 / ratetol=1.0 / qcomp=0.60 / qpmin=0 / qpmax=69 / qpstep=4 / cplxblur=20.0 / qblur=0.5 / ip_ratio=1.40 / aq=1:1.00
Language : English
Default : Yes
Forced : Yes

Audio #1
ID : 2
Format : AC-3
Format/Info : Audio Coding 3
Mode extension : CM (complete main)
Format settings, Endianness : Big
Codec ID : A_AC3
Duration : 1h 30mn
Bit rate mode : Constant
Bit rate : 192 Kbps
Channel(s) : 2 channels
Channel positions : Front: L R
Sampling rate : 48.0 KHz
Bit depth : 16 bits
Compression mode : Lossy
Stream size : 124 MiB (3%)
Title : DD 2.0 @ 192 kbps - MVO, TB3
Language : Russian
Default : Yes
Forced : Yes

Audio #2
ID : 3
Format : AC-3
Format/Info : Audio Coding 3
Mode extension : CM (complete main)
Format settings, Endianness : Big
Codec ID : A_AC3
Duration : 1h 30mn
Bit rate mode : Constant
Bit rate : 640 Kbps
Channel(s) : 6 channels
Channel positions : Front: L C R, Side: L R, LFE
Sampling rate : 48.0 KHz
Bit depth : 16 bits
Compression mode : Lossy
Stream size : 413 MiB (9%)
Language : English
Default : No
Forced : No

Text
ID : 4
Format : UTF-8
Codec ID : S_TEXT/UTF8
Codec ID/Info : UTF-8 Plain Text
Language : English
Default : No
Forced : No
Свернуть
Скриншоты

Изображение
Изображение
Изображение
Изображение
Свернуть
_________________
ИзображениеИзображение Изображение
Изображение
 tany1984 и di-ys1 нравится это.
Не в сети
Профиль  
Начать новую темуОтветить на тему  [ 1 сообщение ] 
Вы не можете начинать темы
Вы не можете отвечать на сообщения
Вы не можете редактировать свои сообщения
Вы не можете удалять свои сообщения