Правила форума

  • В этом разделе создание новых тем Запрещено.
  • Для создания новых тем пользуйтесь Корневым разделом DVD и HD фильмы.
Начать новую темуОтветить на тему  [ Сообщений: 4 ] 
Торрент файл
Размер: 4.12 GB • Зарегистрирован: 4 года 6 месяцев • Статус: Проверено
Скачан: 11 раз • Желающих скачать: 0 • Поблагодарили: 6 раз
 Раздают: 1  |  0 KB/s  ]   Качают: 0  |  0 KB/s  ] 
Сообщения
 Добавлено: 2012-05-14 20:26
Модератор
Аватара пользователя
Стаж: 8 лет
Сообщений: 1991
Спасибок: 129862
Лайков: 20
Стой! Или моя мама будет стрелять / Stop! Or My Mom Will Shoot


«Detective Joe Bomowski's mom is in town for a visit. She did the laundry, washed the windows and scrubbed the floors. Now, she's gonna clean up the streets.»



Изображение
Год выпуска: 1992
Страна: Изображение США
Жанр: боевик, комедия
Продолжительность:
01:23:09

Перевод: Профессиональный (двухголосый) R5 / ОРТ / СТС, Профессиональный (многоголосый, закадровый), Авторский (Михалев Алексей)

Режиссер: Роджер Споттисвуд
Сценарий: Блейк Снайдер, Уильям Осборн, Уильям Дэвис
Продюсер: Тодд Блэк, Майкл С. Гросс, Арт Левинсон, Джо Медьяк, Тони Мунафо
Оператор: Фрэнк Тайди
Композитор: Алан Сильвестри

В ролях:
Сильвестр Сталлоне (Sgt. Joe Bomowski), Эстелл Гетти (Tutti Bomowski), ДжоБет Уильямс (Lt. Gwen Harper), Роджер Рис (Parnell), Мартин Ферреро (Paulie), Гейлард Сартейн (Munroe), Джон Уэсли (Tony), Эл Фэнн (Lou), Элла Джойс (McCabe), Дж. Кеннет Кэмпбелл (Det. Ross), Николас Сэдлер (Suicide), Деннис Бёркли (Mitchell)

Описание: У сержанта полиции Лос-Анджелеса Джо Борновски жизнь перевернулась вверх дном после того, как его милая мамаша Тутти решила навестить любимого сыночка. К огромной радости подружки и непосредственного начальника Джо, лейтенанта Гвен Харпер, Тутти сразу приводит в порядок его холостяцкую берлогу и начинает налаживать «хозяйство».
Как вы прекрасно понимаете, бравый сержант не в восторге от всех этих нововведений. А тут еще, в дополнение ко всем проблемам, неугомонная Тутти оказывается свидетельницей убийства и требует… чтобы сын позволил ей участвовать в расследовании!
В итоге Джо получает нового напарника - собственную мамулю, которая решает задать преступникам солидную трепку!


Изображение: 6.612 (8 319)
Изображение: 3.60 (19 084)

MPAA: Изображение - Детям до 13 лет просмотр не желателен

Доп. Информация
Сборы в США: $28 411 210
Сборы в мире: $70 611 210
Мировая премьера: 21 февраля 1992

Свернуть


Качество: BDRip 720p R5

Формат: MKV
Видео: AVC; 1280x692 (1.850); 5413 Kbps; 25 fps; 0,244 bpp
Аудио №1: Russian; AC3; 192 Kbps; CBR; 2 ch; 16 bit - DVO (R5/ОРТ/СТС)
Аудио №2: Russian; AC3; 448 Kbps; CBR; 6 ch; 16 bit - MVO
Аудио №3: Russian; AC3; 448 Kbps; CBR; 6 ch; 16 bit - Михалёв
Аудио №4: English; AC3; 448 Kbps; CBR; 6 ch; 16 bit
Субтитры №1: Russian
Субтитры №2: English
Изображение


Знаете ли Вы, что...
  • Сталлоне, по собственным словам, считает данный фильм худшим в своей карьере.
Свернуть
BDInfo
Общее
Уникальный идентификатор : 183568508188259994226542070968709687131 (0x8A1A0238A1A260E5886C282BFF86275B)
Полное имя : E:\HD\Stop.Or.My.Mom.Will.Shoot.1992.720p.HDTV.3xRus.Eng.mkv
Формат : Matroska
Версия формата : Version 2
Размер файла : 4,12 Гбайт
Продолжительность : 1 ч. 23 м.
Общий поток : 7091 Кбит/сек
Дата кодирования : UTC 2012-05-13 16:07:11
Программа кодирования : mkvmerge v5.5.0 ('Healer') built on Apr 6 2012 21:43:24
Библиотека кодирования : libebml v1.2.3 + libmatroska v1.3.0
Видео
Идентификатор : 1
Формат : AVC
Формат/Информация : Advanced Video Codec
Профиль формата : High@L4.1
Параметр CABAC формата : Да
Параметр ReFrames формата : 9 кадров
Идентификатор кодека : V_MPEG4/ISO/AVC
Продолжительность : 1 ч. 23 м.
Битрейт : 5414 Кбит/сек
Ширина : 1280 пикселей
Высота : 692 пикселя
Соотношение сторон : 1,85:1
Частота кадров : 25,000 кадров/сек
Частота кадров в оригинале : 23,976 кадра/сек
Цветовое пространство : YUV
Субдискретизация насыщенности : 4:2:0
Битовая глубина : 8 бит
Тип развёртки : Прогрессивная
Бит/(Пиксели*Кадры) : 0.244
Размер потока : 3,14 Гбайт (76%)
Заголовок : Stop! Or My Mom Will Shoot (1992)
Библиотека кодирования : x264 core 124 r2197 69a0443
Настройки программы : cabac=1 / ref=9 / deblock=1:-1:-1 / analyse=0x3:0x133 / me=umh / subme=10 / psy=1 / psy_rd=1.00:0.15 / mixed_ref=1 / me_range=24 / chroma_me=1 / trellis=2 / 8x8dct=1 / cqm=0 / deadzone=21,11 / fast_pskip=1 / chroma_qp_offset=-3 / threads=9 / sliced_threads=0 / nr=0 / decimate=1 / interlaced=0 / bluray_compat=0 / constrained_intra=0 / bframes=8 / b_pyramid=2 / b_adapt=2 / b_bias=0 / direct=3 / weightb=1 / open_gop=0 / weightp=2 / keyint=250 / keyint_min=23 / scenecut=40 / intra_refresh=0 / rc_lookahead=60 / rc=crf / mbtree=1 / crf=17.0 / qcomp=0.60 / qpmin=0 / qpmax=69 / qpstep=4 / ip_ratio=1.40 / aq=1:1.00
Default : Да
Forced : Нет
Коэффициенты матрицы : BT.709-5, BT.1361, IEC 61966-2-4 709, SMPTE RP177
Аудио #1
Идентификатор : 2
Формат : AC-3
Формат/Информация : Audio Coding 3
Расширение режима : CM (complete main)
Параметр Endianness формата : Big
Идентификатор кодека : A_AC3
Продолжительность : 1 ч. 23 м.
Вид битрейта : Постоянный
Битрейт : 192 Кбит/сек
Каналы : 2 канала
Расположение каналов : Front: L R
Частота : 48,0 КГц
Битовая глубина : 16 бит
Метод сжатия : С потерями
Размер потока : 114 Мбайт (3%)
Заголовок : Двухголосый закадровый - R5 / ОРТ / СТС
Язык : Russian
Default : Да
Forced : Нет
Аудио #2
Идентификатор : 3
Формат : AC-3
Формат/Информация : Audio Coding 3
Расширение режима : CM (complete main)
Параметр Endianness формата : Big
Идентификатор кодека : A_AC3
Продолжительность : 1 ч. 23 м.
Вид битрейта : Постоянный
Битрейт : 448 Кбит/сек
Каналы : 6 каналов
Расположение каналов : Front: L C R, Side: L R, LFE
Частота : 48,0 КГц
Битовая глубина : 16 бит
Метод сжатия : С потерями
Размер потока : 266 Мбайт (6%)
Заголовок : Многоголосый закадровый
Язык : Russian
Default : Нет
Forced : Нет
Аудио #3
Идентификатор : 4
Формат : AC-3
Формат/Информация : Audio Coding 3
Расширение режима : CM (complete main)
Параметр Endianness формата : Big
Идентификатор кодека : A_AC3
Продолжительность : 1 ч. 23 м.
Вид битрейта : Постоянный
Битрейт : 448 Кбит/сек
Каналы : 6 каналов
Расположение каналов : Front: L C R, Side: L R, LFE
Частота : 48,0 КГц
Битовая глубина : 16 бит
Метод сжатия : С потерями
Размер потока : 266 Мбайт (6%)
Заголовок : Авторский одногосый - А. Михалёв
Язык : Russian
Default : Нет
Forced : Нет
Аудио #4
Идентификатор : 5
Формат : AC-3
Формат/Информация : Audio Coding 3
Расширение режима : CM (complete main)
Параметр Endianness формата : Big
Идентификатор кодека : A_AC3
Продолжительность : 1 ч. 23 м.
Вид битрейта : Постоянный
Битрейт : 448 Кбит/сек
Каналы : 6 каналов
Расположение каналов : Front: L C R, Side: L R, LFE
Частота : 48,0 КГц
Битовая глубина : 16 бит
Метод сжатия : С потерями
Размер потока : 266 Мбайт (6%)
Заголовок : Оригинал
Язык : English
Default : Нет
Forced : Нет
Текст #1
Идентификатор : 6
Формат : UTF-8
Идентификатор кодека : S_TEXT/UTF8
Идентификатор кодека/Информация : UTF-8 Plain Text
Язык : Russian
Default : Нет
Forced : Нет
Текст #2
Идентификатор : 7
Формат : UTF-8
Идентификатор кодека : S_TEXT/UTF8
Идентификатор кодека/Информация : UTF-8 Plain Text
Язык : English
Default : Нет
Forced : Нет
Свернуть
Скриншоты
Изображение
Изображение
Изображение
Изображение
Свернуть

_________________
Себе ты можешь не качать, но раздавать другим обязан!
Не в сети
Профиль  
 Добавлено: 2012-05-15 19:58 (спустя 23 часа)
Аватара пользователя
Стаж: 7 лет 11 месяцев
Сообщений: 994
Лайков: 73
Знаете ли Вы, что...
Сталлоне, по собственным словам, считает данный фильм худшим в своей карьере.

НЕУДЕРЖИМЫЕ его мечта сбылась!!))
Не в сети
Профиль  
 Добавлено: 2012-05-17 02:08 (спустя 1 день 6 часов)
Аватара пользователя
Стаж: 8 лет 3 месяца
Сообщений: 120
Спасибок: 1260
Лайков: 10
:)


Последний раз редактировалось СергейVip 2012-05-17 02:09, всего редактировалось 1 раз.
Не в сети
Профиль  
 Добавлено: 2012-05-17 02:08 (спустя 54 секунды)
Аватара пользователя
Стаж: 8 лет 3 месяца
Сообщений: 120
Спасибок: 1260
Лайков: 10

Evil_Knievel:

Знаете ли Вы, что...
Сталлоне, по собственным словам, считает данный фильм худшим в своей карьере.

НЕУДЕРЖИМЫЕ его мечта сбылась!!))




Да я хрен знает, по моему классный фильм :bra_vo: :bra_vo: :bra_vo:
Не в сети
Профиль  
Начать новую темуОтветить на тему  [ Сообщений: 4 ] 
Вы не можете начинать темы
Вы не можете отвечать на сообщения
Вы не можете редактировать свои сообщения
Вы не можете удалять свои сообщения