Правила форума

  • В этом разделе создание новых тем Запрещено.
  • Для создания новых тем пользуйтесь Корневым разделом DVD и HD фильмы.
Начать новую темуОтветить на тему  [ Сообщений: 11 ] 
Торрент файл
Размер: 6.31 GB • Зарегистрирован: 2 года • Статус: Проверено
Скачан: 365 раз • Желающих скачать: 0 • Поблагодарили: 91 раз
 Раздают: 4  |  0 KB/s  ]   Качают: 0  |  0 KB/s  ] 
Сообщения
 Добавлено: 2014-11-21 21:34
DVD Release Group
Аватара пользователя
Стаж: 7 лет 1 месяц
Сообщений: 3546
Спасибок: 246973
Лайков: 1018
Стражи Галактики

Guardians of the Galaxy


Изображение


Год выпуска: 2014
Страна: США
Жанр: Фантастика, боевик, приключения
Продолжительность: 02:00:51
Перевод: Профессиональный (полное дублирование)
Субтитры: Русские, английские
Режиссер: Джеймс Ганн
В ролях: Крис Прэтт, Зои Салдана, Дэйв Батиста, Вин Дизель, Брэдли Купер, Ли Пейс, Майкл Рукер, Карен Гиллан, Джимон Хонсу, Джон Си Райли
Описание: Питер Квилл становится жертвой охотников за головами после кражи таинственной сферы, за которой охотился Ронан- могущественный злодей, полный амбиций и угрожающий целой вселенной. Чтобы одолеть Ронана, Питеру приходится объединиться с квартетом отбросов: вооружённым до зубов Ракетным енотом, древоподобным гуманоидом Грутом, смертельно опасной и загадочной Гаморой и мстительным Драксом Разрушителем. Но когда Питер обнаруживает истинную силу сферы и узнаёт насколько она опасна для космоса, он должен сделать всё возможное, чтобы сплотить всех членов команды для последнего противостояния и вернуть баланс во всей Галактике.
Изображение
Sample:
http://sendfile.su/1051290
Качество: BDRip 720p
Формат: MKV
Видео кодек: H.264
Аудио кодек: AC3
Видео: 1280x534 59.88fps 6188kbps
Аудио:
Аудио Rus: 48kHz 6ch 640kbps
Аудио Eng: 48kHz 6ch 640kbps
"MediaInfo"
Формат : Matroska
Версия формата : Version 2
Размер файла : 6,31 Гбайт
Продолжительность : 2 ч. 0 м.
Общий поток : 7475 Кбит/сек
Название фильма : Стражи Галактики.(2014).BDRip.720p
Дата кодирования : UTC 2014-11-21 15:23:10
Программа кодирования : mkvmerge v5.8.0 ('No Sleep / Pillow') built on Sep 2 2012 15:37:04
Библиотека кодирования : libebml v1.2.3 + libmatroska v1.3.0

Видео
Идентификатор : 1
Формат : AVC
Формат/Информация : Advanced Video Codec
Профиль формата : High@L4.1
Параметр CABAC формата : Да
Параметр ReFrames формата : 9 кадров
Идентификатор кодека : V_MPEG4/ISO/AVC
Продолжительность : 2 ч. 0 м.
Битрейт : 6188 Кбит/сек
Ширина : 1280 пикселей
Высота : 534 пикселя
Соотношение сторон : 2,40:1
Режим частоты кадров : Постоянный
Частота кадров : 59,880 кадров/сек
Частота кадров в оригинале : 59,940 кадров/сек
Цветовое пространство : YUV
Субдискретизация насыщенности : 4:2:0
Битовая глубина : 8 бит
Тип развёртки : Прогрессивная
Бит/(Пиксели*Кадры) : 0.151
Размер потока : 5,10 Гбайт (81%)
Заголовок : Стражи Галактики.(2014).BDRip.720p
Библиотека кодирования : x264 core 130 r2273 b3065e6
Настройки программы : cabac=1 / ref=9 / deblock=1:0:0 / analyse=0x3:0x133 / me=umh / subme=10 / psy=1 / psy_rd=1.00:0.00 / mixed_ref=1 / me_range=28 / chroma_me=1 / trellis=2 / 8x8dct=1 / cqm=0 / deadzone=21,11 / fast_pskip=0 / chroma_qp_offset=-2 / threads=12 / lookahead_threads=2 / sliced_threads=0 / nr=0 / decimate=1 / interlaced=0 / bluray_compat=0 / constrained_intra=0 / bframes=7 / b_pyramid=2 / b_adapt=2 / b_bias=0 / direct=3 / weightb=1 / open_gop=0 / weightp=2 / keyint=250 / keyint_min=25 / scenecut=40 / intra_refresh=0 / rc=2pass / mbtree=0 / bitrate=6188 / ratetol=1.0 / qcomp=0.60 / qpmin=0 / qpmax=69 / qpstep=4 / cplxblur=20.0 / qblur=0.5 / ip_ratio=1.40 / pb_ratio=1.30 / aq=2:0.90
Язык : English
Default : Да
Forced : Нет

Аудио #1
Идентификатор : 2
Формат : AC-3
Формат/Информация : Audio Coding 3
Расширение режима : CM (complete main)
Параметр Endianness формата : Big
Идентификатор кодека : A_AC3
Продолжительность : 2 ч. 0 м.
Вид битрейта : Постоянный
Битрейт : 640 Кбит/сек
Каналы : 6 каналов
Расположение каналов : Front: L C R, Side: L R, LFE
Частота : 48,0 КГц
Битовая глубина : 16 бит
Метод сжатия : С потерями
Размер потока : 553 Мбайт (9%)
Заголовок : Dub
Язык : Russian
Default : Да
Forced : Нет

Аудио #2
Идентификатор : 3
Формат : AC-3
Формат/Информация : Audio Coding 3
Расширение режима : CM (complete main)
Параметр Endianness формата : Big
Идентификатор кодека : A_AC3
Продолжительность : 2 ч. 0 м.
Вид битрейта : Постоянный
Битрейт : 640 Кбит/сек
Каналы : 6 каналов
Расположение каналов : Front: L C R, Side: L R, LFE
Частота : 48,0 КГц
Битовая глубина : 16 бит
Метод сжатия : С потерями
Размер потока : 553 Мбайт (9%)
Заголовок : Eng
Язык : English
Default : Нет
Forced : Нет

Текст #1
Идентификатор : 4
Формат : UTF-8
Идентификатор кодека : S_TEXT/UTF8
Идентификатор кодека/Информация : UTF-8 Plain Text
Заголовок : forced
Язык : Russian
Default : Да
Forced : Да

Текст #2
Идентификатор : 5
Формат : UTF-8
Идентификатор кодека : S_TEXT/UTF8
Идентификатор кодека/Информация : UTF-8 Plain Text
Заголовок : full
Язык : Russian
Default : Нет
Forced : Нет

Текст #3
Идентификатор : 6
Формат : UTF-8
Идентификатор кодека : S_TEXT/UTF8
Идентификатор кодека/Информация : UTF-8 Plain Text
Заголовок : full
Язык : English
Default : Нет
Forced : Нет

Меню
00:00:00.000 : en:00:00:00.000
00:04:05.704 : en:00:04:05.704
00:11:21.806 : en:00:11:21.806
00:15:21.712 : en:00:15:21.712
00:20:54.420 : en:00:20:54.420
00:27:11.213 : en:00:27:11.213
00:33:58.828 : en:00:33:58.828
00:44:28.291 : en:00:44:28.291
00:50:53.008 : en:00:50:53.008
00:55:17.564 : en:00:55:17.564
00:59:45.207 : en:00:59:45.207
01:06:06.921 : en:01:06:06.921
01:14:46.023 : en:01:14:46.023
01:22:20.644 : en:01:22:20.644
01:26:29.726 : en:01:26:29.726
01:30:23.877 : en:01:30:23.877
01:35:58.378 : en:01:35:58.378
01:40:46.749 : en:01:40:46.749
01:47:35.366 : en:01:47:35.366
01:53:16.623 : en:01:53:16.623
02:00:10.829 : en:02:00:10.829
Свернуть

"Скриншоты"
Изображение
Изображение
Изображение
Изображение
Изображение
Изображение
Свернуть
Не в сети
Профиль  
 Добавлено: 2014-11-21 21:58 (спустя 23 минуты)
Аватара пользователя
Стаж: 8 лет 1 месяц
Сообщений: 171
Семпл на пендосовском прилеплен.
Не в сети
Профиль  
 Добавлено: 2014-11-21 22:09 (спустя 11 минут)
DVD Release Group
Аватара пользователя
Стаж: 7 лет 1 месяц
Сообщений: 3546
Спасибок: 246973
Лайков: 1018

Фолиандр:

Семпл на пендосовском прилеплен.
И что из этого?
Не в сети
Профиль  
 Добавлено: 2014-11-22 20:54 (спустя 22 часа)
Аватара пользователя
Стаж: 8 лет 1 месяц
Сообщений: 171
Ну некоторые еще и перевод заценивают. Видео вроде нормуль.
Не в сети
Профиль  
 Добавлено: 2014-11-23 07:57 (спустя 11 часов)
DVD Release Group
Аватара пользователя
Стаж: 7 лет 1 месяц
Сообщений: 3546
Спасибок: 246973
Лайков: 1018
Фолиандр
Так вы дорожку переключите и оцените перевод.
Не в сети
Профиль  
 Добавлено: 2014-11-26 08:36 (спустя 3 дня)
Аватара пользователя
Стаж: 8 лет 11 месяцев
Сообщений: 515
Спасибок: 39
Лайков: 49
А есть у вас точно такой же, но только с 1080 р?
Не в сети
Профиль  
 Добавлено: 2014-11-26 08:59 (спустя 22 минуты)
DVD Release Group
Аватара пользователя
Стаж: 7 лет 1 месяц
Сообщений: 3546
Спасибок: 246973
Лайков: 1018
Микки
Пока нет, в процессе.
Не в сети
Профиль  
 Добавлено: 2014-11-26 21:19 (спустя 12 часов)
Пользователь забанен
Аватара пользователя
Стаж: 8 лет 3 месяца
Сообщений: 17
Как фильм то? Стоит потратить время?
Не в сети
Профиль  
 Добавлено: 2014-11-29 15:25 (спустя 2 дня 18 часов)
Аватара пользователя
Стаж: 7 лет 9 месяцев
Сообщений: 10
безусловно
Не в сети
Профиль  
 Добавлено: 2014-11-29 15:49 (спустя 23 минуты)
DVD Release Group
Аватара пользователя
Стаж: 7 лет 1 месяц
Сообщений: 3546
Спасибок: 246973
Лайков: 1018
Стражи Галактики BDRip 1080p 60fps
Не в сети
Профиль  
 Добавлено: 2015-07-28 12:38 (спустя 7 месяцев)
Аватара пользователя
Стаж: 8 лет 9 месяцев
Возраст: 32
Сообщений: 378
Спасибок: 1
Лайков: 75
Спасибо вам огромное за такую раздачу!!!!!!!!!!!!!
_________________
Всё пройдет, и это, тоже.
Я видел пьяниц с мудрыми глазами. И падших женщин с ликом чистоты. Я знаю сильных, что взахлёб рыдали. И слабых, что несут кресты. Не осуждай за то, в чём не уверен. Не обещай, если решил солгать. Не проверяй, когда уже доверил. И не дари, планируя отнять.
Не в сети
Профиль  
Начать новую темуОтветить на тему  [ Сообщений: 11 ] 
Вы не можете начинать темы
Вы не можете отвечать на сообщения
Вы не можете редактировать свои сообщения
Вы не можете удалять свои сообщения