Правила форума

  • В этом разделе создание новых тем Запрещено.
  • Для создания новых тем пользуйтесь Корневым разделом DVD и HD фильмы.
Начать новую темуОтветить на тему  [ Сообщений: 9 ] 
Торрент файл
Размер: 19.39 GB • Зарегистрирован: 2 года • Статус: Проверено
Скачан: 137 раз • Желающих скачать: 0 • Поблагодарили: 30 раз
 Раздают: 0  |  0 KB/s  ]   Качают: 0  |  0 KB/s  ] 
 Полного источника не было 6 часов 
Сообщения
 Добавлено: 2014-11-29 15:40
DVD Release Group
Аватара пользователя
Стаж: 7 лет 1 месяц
Сообщений: 3549
Спасибок: 247076
Лайков: 1018
Стражи Галактики

Guardians of the Galaxy


Изображение


Год выпуска: 2014
Страна: США
Жанр: Фантастика, боевик, приключения
Продолжительность: 02:01:08
Перевод: Профессиональный (полное дублирование)
Режиссер: Джеймс Ганн
В ролях: Крис Прэтт, Зои Салдана, Дэйв Батиста, Вин Дизель, Брэдли Купер, Ли Пейс, Майкл Рукер, Карен Гиллан, Джимон Хонсу, Джон Си Райли
Описание: Питер Квилл становится жертвой охотников за головами после кражи таинственной сферы, за которой охотился Ронан- могущественный злодей, полный амбиций и угрожающий целой вселенной. Чтобы одолеть Ронана, Питеру приходится объединиться с квартетом отбросов: вооружённым до зубов Ракетным енотом, древоподобным гуманоидом Грутом, смертельно опасной и загадочной Гаморой и мстительным Драксом Разрушителем. Но когда Питер обнаруживает истинную силу сферы и узнаёт насколько она опасна для космоса, он должен сделать всё возможное, чтобы сплотить всех членов команды для последнего противостояния и вернуть баланс во всей Галактике.
Изображение
Sample:
http://sendfile.su/1051291
Качество: BDRip 1080p
Формат: MKV
Видео кодек: H.264
Аудио кодек: AC3, DTS
Видео: 1920х800 59.94fps 21.0Mbps
Аудио:
Аудио Rus: AC3 48kHz 6ch 640kbps
Аудио Eng: DTS 48kHz 6ch 1510kbps
"MediaInfo"
Формат : Matroska
Версия формата : Version 2
Размер файла : 19,4 Гбайт
Продолжительность : 2 ч. 1 м.
Общий поток : 22,9 Мбит/сек
Название фильма : Guardians.of.the.Galaxy.2014.1080p.BDRip
Дата кодирования : UTC 2014-11-20 16:04:19
Программа кодирования : mkvmerge v3.4.0 ('Rapunzel') сборка от May 18 2010 22:32:11
Библиотека кодирования : libebml v0.8.0 + libmatroska v0.9.0

Видео
Идентификатор : 1
Формат : AVC
Формат/Информация : Advanced Video Codec
Профиль формата : High@L4.1
Параметр CABAC формата : Да
Параметр ReFrames формата : 4 кадра
Идентификатор кодека : V_MPEG4/ISO/AVC
Битрейт : 21,0 Мбит/сек
Ширина : 1920 пикселей
Высота : 800 пикселей
Соотношение сторон : 2,40:1
Режим частоты кадров : Переменный
Частота кадров в оригинале : 59,940 кадров/сек
Цветовое пространство : YUV
Субдискретизация насыщенности : 4:2:0
Битовая глубина : 8 бит
Тип развёртки : Прогрессивная
Бит/(Пиксели*Кадры) : 0.228
Заголовок : Rip by izomsk
Библиотека кодирования : x264 core 120 r2120kMod 0c7dab9
Настройки программы : cabac=1 / ref=4 / deblock=1:0:0 / analyse=0x3:0x113 / me=esa / subme=9 / psy=1 / fade_compensate=0.00 / psy_rd=1.00:0.00 / mixed_ref=1 / me_range=28 / chroma_me=1 / trellis=2 / 8x8dct=1 / cqm=0 / deadzone=21,11 / fast_pskip=1 / chroma_qp_offset=-2 / threads=12 / sliced_threads=1 / slices=12 / nr=0 / decimate=1 / interlaced=0 / bluray_compat=0 / constrained_intra=0 / bframes=9 / b_pyramid=2 / b_adapt=2 / b_bias=0 / direct=1 / weightb=1 / open_gop=0 / weightp=2 / keyint=600 / keyint_min=23 / scenecut=40 / intra_refresh=0 / rc=abr / mbtree=0 / bitrate=21000 / ratetol=1.0 / qcomp=0.60 / qpmin=10 / qpmax=51 / qpstep=4 / ip_ratio=1.40 / pb_ratio=1.30 / aq=1:1.00
Язык : English
Default : Да
Forced : Нет

Аудио #1
Идентификатор : 2
Формат : AC-3
Формат/Информация : Audio Coding 3
Расширение режима : CM (complete main)
Параметр Endianness формата : Big
Идентификатор кодека : A_AC3
Продолжительность : 2 ч. 1 м.
Вид битрейта : Постоянный
Битрейт : 640 Кбит/сек
Каналы : 6 каналов
Расположение каналов : Front: L C R, Side: L R, LFE
Частота : 48,0 КГц
Битовая глубина : 16 бит
Метод сжатия : С потерями
Задержка видео : 520 мс.
Размер потока : 555 Мбайт (3%)
Заголовок : Русский Dolby Digital 5.1 (640 kbps) (Дубляж)
Язык : Russian
Default : Да
Forced : Да

Аудио #2
Идентификатор : 3
Формат : DTS
Формат/Информация : Digital Theater Systems
Режим : 16
Параметр Endianness формата : Big
Идентификатор кодека : A_DTS
Продолжительность : 2 ч. 1 м.
Вид битрейта : Постоянный
Битрейт : 1509 Кбит/сек
Каналы : 6 каналов
Расположение каналов : Front: L C R, Side: L R, LFE
Частота : 48,0 КГц
Битовая глубина : 24 бит
Метод сжатия : С потерями
Задержка видео : 531 мс.
Размер потока : 1,28 Гбайт (7%)
Заголовок : English Original
Язык : English
Default : Нет
Forced : Нет

Меню
00:00:00.000 : en:00:00:00.000
00:04:05.704 : en:00:04:05.704
00:11:21.806 : en:00:11:21.806
00:15:21.712 : en:00:15:21.712
00:20:54.420 : en:00:20:54.420
00:27:11.213 : en:00:27:11.213
00:33:58.828 : en:00:33:58.828
00:44:28.291 : en:00:44:28.291
00:50:53.008 : en:00:50:53.008
00:55:17.564 : en:00:55:17.564
00:59:45.207 : en:00:59:45.207
01:06:06.921 : en:01:06:06.921
01:14:46.023 : en:01:14:46.023
01:22:20.644 : en:01:22:20.644
01:26:29.726 : en:01:26:29.726
01:30:23.877 : en:01:30:23.877
01:35:58.378 : en:01:35:58.378
01:40:46.749 : en:01:40:46.749
01:47:35.366 : en:01:47:35.366
01:53:16.623 : en:01:53:16.623
02:00:10.829 : en:02:00:10.829
Свернуть

"Скриншоты"
Изображение
Изображение
Изображение
Изображение
Изображение
Изображение
Изображение
Свернуть
Не в сети
Профиль  
 Добавлено: 2014-11-29 15:55 (спустя 14 минут)
Аватара пользователя
Стаж: 7 лет 8 месяцев
Сообщений: 63
золотите
Не в сети
Профиль  
 Добавлено: 2014-11-29 16:44 (спустя 49 минут)
Аватара пользователя
Стаж: 7 лет 8 месяцев
Сообщений: 932
Лайков: 50
59.94fps
Оригинал или переконвертация из 24?
Не в сети
Профиль  
 Добавлено: 2014-11-29 17:03 (спустя 18 минут)
DVD Release Group
Аватара пользователя
Стаж: 7 лет 1 месяц
Сообщений: 3549
Спасибок: 247076
Лайков: 1018
wowerr
А разве оригинал бывает 60fps?
Не в сети
Профиль  
 Добавлено: 2014-11-30 02:00 (спустя 8 часов)
Аватара пользователя
Стаж: 7 лет 8 месяцев
Сообщений: 932
Лайков: 50
rastor
Ну, мало ли, может решили вообще на слоумо камеру снять, я хз.
Хоббитов же сняли с 48, что бы этим не заморочиться...
Не в сети
Профиль  
 Добавлено: 2014-11-30 17:08 (спустя 15 часов)
Аватара пользователя
Стаж: 8 лет 5 месяцев
Сообщений: 188
Спасибок: 242
Лайков: 11
А русский ДТС вообще будет когда нибудь?
Не в сети
Профиль  
 Добавлено: 2014-11-30 17:24 (спустя 16 минут)
DVD Release Group
Аватара пользователя
Стаж: 7 лет 1 месяц
Сообщений: 3549
Спасибок: 247076
Лайков: 1018
ramzes1985
На блурее вроде не было DTS русского.
Не в сети
Профиль  
 Добавлено: 2014-12-07 00:03 (спустя 6 дней)
Аватара пользователя
Стаж: 3 года 4 месяца
Сообщений: 24
Спасибо посмотрим
Не в сети
Профиль  
 Добавлено: 2015-01-01 22:52 (спустя 25 дней)
Top-seeder
Стаж: 8 лет 2 месяца
Сообщений: 437
Спасибок: 446
Лайков: 31
мне не понравился репак, правда я до этого не смотрел 60 фпс, но выглядит ужасно. А фильм очень понравился.
Не в сети
Профиль  
Начать новую темуОтветить на тему  [ Сообщений: 9 ] 
Вы не можете начинать темы
Вы не можете отвечать на сообщения
Вы не можете редактировать свои сообщения
Вы не можете удалять свои сообщения