Правила форума

  • В этом разделе создание новых тем Запрещено.
  • Для создания новых тем пользуйтесь Корневым разделом DVD и HD фильмы.
Начать новую темуОтветить на тему  [ Сообщений: 3 ] 
Торрент файл
Размер: 15.36 GB • Зарегистрирован: 5 лет 4 месяца • Статус: Проверено
Скачан: 21 раз • Желающих скачать: 0 • Поблагодарили: 5 раз
 Раздают: 0  |  0 KB/s  ]   Качают: 0  |  0 KB/s  ] 
 Полного источника не было 3 года 2 месяца 
Сообщения
 Добавлено: 2011-07-28 23:24
Модератор
Аватара пользователя
Стаж: 8 лет 1 месяц
Сообщений: 1991
Спасибок: 129864
Лайков: 20
Страна тигров / Tigerland


«The system wanted them to become soldiers. One soldier just wanted to be human.»



Изображение
Год выпуска: 2000
Страна: Изображение США, Изображение Германия
Жанр: драма, военный
Продолжительность:
01:40:59

Перевод: Оригинальный, Профессиональный (многоголосый, закадровый), Профессиональный (полное дублирование), Авторский (Визгунов Сергей) [лицензия]

Режиссер: Джоэл Шумахер
Сценарий: Росс Клэван, Michael McGruther
Продюсер: Бо Флинн, Стивен Хафт, Арнон Милчэн, Тед Курдила, Эли Ричбург
Оператор: Мэттью Либатик
Композитор: Натан Ларсон

В ролях:
Колин Фаррелл (Pvt. Roland Bozz), Мэттью Дэвис (Pvt. Jim Paxton), Клифтон Коллинз мл. (Pvt. Miter), Том Гайри (Pvt. Cantwell), Ши Уигхэм (Pvt. Wilson), Расселл Ричардсон (Pvt. Johnson), Ник Сирси (Capt. Saunders), Афемо Омилами (SFC Ezra Landers), Джеймс МакДональд (Staff Sgt. Thomas), Кейт Юэлл (Sgt. Oakes), Мэтт Джералд (Sgt. Eveland), Стефен Фултон (Sgt. Drake)
Дублёры: Даниил Эльдаров (SFC Ezra Landers) (SFC Ezra Landers)

Описание: Чтобы подготовить новобранцев к войне во Вьетнаме, в США построен самый совершенный тренировочный центр. Это место, существующее по своим, особым законам, пользуется дурной славой. Большинство попавших туда, жалеют о том, что они вообще родились.
Это адская фабрика, где молодых ребят превращают в боевые машины, хладнокровных убийц, способных не задумываясь выполнить любой приказ. У этой системы свои, жесткие методы воздействия.
И после такой тренировки, война во Вьетнаме будет доставлять удовольствие. Однако среди массы новобранцев находится тот, кто пытается оставаться человеком. Он лидер, и способен повести за собой остальных, но чем закончится этот путь, сложно даже представить...


Изображение: 7.643 (792)
Изображение: 7.10 (17 571)

MPAA: Изображение - Лицам до 17 лет обязательно присутствие взрослого

Доп. Информация

Бюджет: $10 000 000
Сборы в США: $139 692
Мировая премьера: 13 сентября 2000
Изображение Релиз на DVD: 12 марта 2009, «Двадцатый Век Фокс СНГ»
Изображение Релиз на Blu-ray: 9 июня 2011, «Двадцатый Век Фокс СНГ»

Свернуть


Качество: BDRip 1080p R5

Формат: MKV
Видео: AVC; 1920x1040 (16:9); 16585 Kbps; 23,976 fps; 0,346 bpp
Аудио №1: Russian; DTS; 754 Kbps; CBR; 6 ch; 24 bit (Дублированный с Blu-ray EUR)
Аудио №2: Russian; DTS; 754 Kbps; CBR; 6 ch; 16 bit (Многоголосый, закадровый с DVD R5)
Аудио №3: Russian; DTS; 1509 Kbps; CBR; 6 ch; 24 bit (Авторский Визгунов Сергей)
Аудио №4: English: DTS; 1509 Kbps; CBR; 6 ch; 24 bit
Аудио №5: English: AC3; 224 Kbps; CBR; 2 ch (Commentary)
Субтитры №1: Russian
Субтитры №2: Russian
Субтитры №3: English



Знаете ли Вы, что...
  • «Страна тигров» («Тайгерлэнд») — название учебных лагерей, в которых американские военнослужащие проходили подготовку к боевым действиям в условиях Юго-Восточной Азии.
  • Книга, которую Бозз читает в начале фильма — известный антивоенный роман Далтона Трамбо «Джонни берёт своё ружьё» об искалеченном ветеране Первой мировой войны.
  • Ругательство «fuck» прозвучало в общей сложности 276 раз за 98 минут экранного времени — т. е. примерно трижды в минуту.
  • Фильм был показан всего в пяти кинотеатрах.
Свернуть
BDInfo

Общее
Уникальный идентификатор : 244941443897024318474145165934869664180 (0xB84601928A3BA34F88B75F23474CD1B4)
Полное имя : F:\Tigerland.2000.BDRip.1080p.x264.DTS.Rus.Eng.mkv
Формат : Matroska
Размер файла : 15,4 Гбайт
Продолжительность : 1 ч. 40 м.
Общий поток : 21,8 Мбит/сек
Название фильма : Tigerland (2000)
Дата кодирования : UTC 2011-05-03 19:45:18
Программа кодирования : mkvmerge v4.7.0 ('Just Like You Imagined') сборка от Apr 21 2011 01:13:14
Библиотека кодирования : libebml v1.2.0 + libmatroska v1.1.0


Видео
Идентификатор : 1
Формат : AVC
Формат/Информация : Advanced Video Codec
Профиль формата : High@L4.1
Параметр CABAC формата : Да
Параметр ReFrames формата : 4 кадры
Идентификатор кодека : V_MPEG4/ISO/AVC
Продолжительность : 1 ч. 40 м.
Битрейт : 17,0 Мбит/сек
Ширина : 1920 пикс.
Высота : 1040 пикс.
Соотношение сторон : 16:9
Частота кадров : 23,976 кадр/сек
Цветовое пространство : YUV
Подвыборка цветности : 4:2:0
Битовая глубина : 8 бит
Тип развёртки : Прогрессивная
Бит/(Пиксели*Кадры) : 0.355
Размер потока : 11,7 Гбайт (76%)
Заголовок : Tigerland 2000 BluRay 1080p DTS x264-CHD
Библиотека кодирования : x264 core 114 r1924 08d04a4
Настройки программы : cabac=1 / ref=4 / deblock=1:-3:-3 / analyse=0x3:0x113 / me=umh / subme=9 / psy=1 / psy_rd=1.05:0.10 / mixed_ref=1 / me_range=32 / chroma_me=1 / trellis=2 / 8x8dct=1 / cqm=2 / deadzone=21,11 / fast_pskip=0 / chroma_qp_offset=-2 / threads=12 / sliced_threads=0 / nr=0 / decimate=1 / interlaced=0 / constrained_intra=0 / bframes=6 / b_pyramid=2 / b_adapt=2 / b_bias=0 / direct=3 / weightb=1 / open_gop=0 / weightp=2 / keyint=250 / keyint_min=23 / scenecut=40 / intra_refresh=0 / rc_lookahead=50 / rc=2pass / mbtree=1 / bitrate=17000 / ratetol=1.0 / qcomp=0.70 / qpmin=1 / qpmax=63 / qpstep=4 / cplxblur=20.0 / qblur=0.5 / vbv_maxrate=40000 / vbv_bufsize=40000 / nal_hrd=none / ip_ratio=1.40 / aq=2:0.70
Язык : English


Аудио #1
Идентификатор : 2
Формат : DTS
Формат/Информация : Digital Theater Systems
Идентификатор кодека : A_DTS
Продолжительность : 1 ч. 40 м.
Вид битрейта : Постоянный
Битрейт : 755 Кбит/сек
Канал(ы) : 6 канала(ов)
Расположение каналов : Front: L C R, Side: L R, LFE
Частота : 48,0 КГц
Битовая глубина : 24 бит
Метод сжатия : С потерями
Размер потока : 545 Мбайт (3%)
Заголовок : Dub DTS 5.1 @ 755 kbps
Язык : Russian


Аудио #2
Идентификатор : 3
Формат : DTS
Формат/Информация : Digital Theater Systems
Идентификатор кодека : A_DTS
Продолжительность : 1 ч. 40 м.
Вид битрейта : Постоянный
Битрейт : 755 Кбит/сек
Канал(ы) : 6 канала(ов)
Расположение каналов : Front: L C R, Side: L R, LFE
Частота : 48,0 КГц
Битовая глубина : 16 бит
Метод сжатия : С потерями
Размер потока : 545 Мбайт (3%)
Заголовок : MVO DTS 5.1 @ 755 kbps
Язык : Russian


Аудио #3
Идентификатор : 4
Формат : DTS
Формат/Информация : Digital Theater Systems
Идентификатор кодека : A_DTS
Продолжительность : 1 ч. 40 м.
Вид битрейта : Постоянный
Битрейт : 1510 Кбит/сек
Канал(ы) : 6 канала(ов)
Расположение каналов : Front: L C R, Side: L R, LFE
Частота : 48,0 КГц
Битовая глубина : 24 бит
Метод сжатия : С потерями
Размер потока : 1,06 Гбайт (7%)
Заголовок : AVO (Vizgunov) DTS-CORE 5.1 @ 1510 kbps
Язык : Russian


Аудио #4
Идентификатор : 5
Формат : DTS
Формат/Информация : Digital Theater Systems
Идентификатор кодека : A_DTS
Продолжительность : 1 ч. 40 м.
Вид битрейта : Постоянный
Битрейт : 1510 Кбит/сек
Канал(ы) : 6 канала(ов)
Расположение каналов : Front: L C R, Side: L R, LFE
Частота : 48,0 КГц
Битовая глубина : 24 бит
Метод сжатия : С потерями
Размер потока : 1,06 Гбайт (7%)
Заголовок : DTS-CORE 1536K
Язык : English


Аудио #5
Идентификатор : 6
Формат : AC-3
Формат/Информация : Audio Coding 3
Расширение режима : CM (complete main)
Идентификатор кодека : A_AC3
Продолжительность : 1 ч. 40 м.
Вид битрейта : Постоянный
Битрейт : 224 Кбит/сек
Канал(ы) : 2 канала(ов)
Расположение каналов : Front: L R
Частота : 48,0 КГц
Битовая глубина : 16 бит
Метод сжатия : С потерями
Размер потока : 162 Мбайт (1%)
Заголовок : Commentary
Язык : English


Текст #1
Идентификатор : 7
Формат : UTF-8
Идентификатор кодека : S_TEXT/UTF8
Идентификатор кодека/Информация : UTF-8 Plain Text
Заголовок : Full
Язык : Russian


Текст #2
Идентификатор : 8
Формат : UTF-8
Идентификатор кодека : S_TEXT/UTF8
Идентификатор кодека/Информация : UTF-8 Plain Text
Заголовок : Commentary
Язык : Russian


Текст #3
Идентификатор : 9
Формат : UTF-8
Идентификатор кодека : S_TEXT/UTF8
Идентификатор кодека/Информация : UTF-8 Plain Text
Язык : English


Меню
00:00:00.000 : en:00:00:00.000
00:04:40.280 : en:00:04:40.280
00:06:11.580 : en:00:06:11.580
00:11:22.724 : en:00:11:22.724
00:14:09.182 : en:00:14:09.182
00:17:21.749 : en:00:17:21.749
00:20:15.923 : en:00:20:15.923
00:25:21.520 : en:00:25:21.520
00:31:02.569 : en:00:31:02.569
00:37:31.207 : en:00:37:31.207
00:42:46.731 : en:00:42:46.731
00:45:58.798 : en:00:45:58.798
00:51:58.157 : en:00:51:58.157
00:56:24.006 : en:00:56:24.006
01:00:17.948 : en:01:00:17.948
01:03:10.036 : en:01:03:10.036
01:05:20.375 : en:01:05:20.375
01:07:32.757 : en:01:07:32.757
01:13:27.403 : en:01:13:27.403
01:16:10.524 : en:01:16:10.524
01:20:36.498 : en:01:20:36.498
01:28:33.642 : en:01:28:33.642
01:32:04.811 : en:01:32:04.811
01:35:53.581 : en:01:35:53.581
Свернуть
Скриншоты

Изображение
Изображение
Изображение
Изображение
Свернуть

_________________
Себе ты можешь не качать, но раздавать другим обязан!
Не в сети
Профиль  
 Добавлено: 2011-08-18 11:13 (спустя 20 дней)
Кинокомментатор
Аватара пользователя
Стаж: 9 лет 1 месяц
Сообщений: 1332
Лайков: 54
надо бы скорости) а то как же качать то?)
_________________
Я ВКонтакте
Не в сети
Профиль  
 Добавлено: 2011-08-23 13:57 (спустя 5 дней)
Кинокомментатор
Аватара пользователя
Стаж: 9 лет 1 месяц
Сообщений: 1332
Лайков: 54
шикарное кино! про то что нах все эти войны! о том что промывка мозгов и доблесть это разные вещи! о том что армия делает изо всех одного человека, только никто не знает какого... дружба, глупость, упорство, злость... вот главные слова этого фильма! всем кто любит фильмы про это, смотреть обязательно! фильм реально до ужаса хорош!
_________________
Я ВКонтакте
Не в сети
Профиль  
Начать новую темуОтветить на тему  [ Сообщений: 3 ] 
Вы не можете начинать темы
Вы не можете отвечать на сообщения
Вы не можете редактировать свои сообщения
Вы не можете удалять свои сообщения