Правила форума

  • В этом разделе создание новых тем Запрещено.
  • Для создания новых тем пользуйтесь Корневым разделом DVD и HD фильмы.
Начать новую темуОтветить на тему  [ 1 сообщение ] 
Торрент файл
Размер: 11.48 GB • Зарегистрирован: 4 года • Статус: Проверено
Скачан: 80 раз • Желающих скачать: 0 • Поблагодарили: 16 раз
 Раздают: 0  |  0 KB/s  ]   Качают: 0  |  0 KB/s  ] 
 Полного источника не было 2 года 1 месяц 
Сообщения
 Добавлено: 2012-12-04 11:11
Аватара пользователя
Стаж: 9 лет 1 месяц
Сообщений: 7981
Спасибок: 122205
Лайков: 1191
Странная жизнь Тимоти Грина / The Odd Life of Timothy Green

«He's a force of nature.»

Изображение


Год выпуска: 2012
Страна: Изображение США
Жанр: фэнтези, драма, комедия
Продолжительность: 01:44:37
Субтитры: Русские, английские
Перевод: Профессиональный (полное дублирование)


Режиссёр: Питер Хеджес
Сценарист: Питер Хеджес, Ахмет Заппа
Продюсер: Скотт Сандерс, Джеймс Уитакер, Ахмет Заппа
Оператор: Джон Толл
Композитор: Джеф Дзанелли

В ролях: Дженнифер Гарнер, Розмари ДеУитт, Дэвид Морс, Дайэнн Уист, Коммон, Лоис Смит, Рон Ливингстон, Джоэл Эдгертон, Рода Гриффис, М. Эммет Уолш

Описание: Одна пара потеряла последнюю надежду зачать ребенка, но однажды происходит чудо — младенец появляется на свет. Но он оказывается не тем, кем кажется на первый взгляд…

Изображение Изображение

Качество: BDRip (1080p)
Формат: Matroska
Видео: MPEG-4 AVC, 13,4 Мбит/с, 1920x1040, 23.976 кадр/c
Аудио №1: Русский (AC3, 6 ch, 640 Кбит/c)
Аудио №2: Английский (DTS, 6 ch, 1510 Кбит/с)
Аудио №3: Английский (AC3, 2 ch, 192 Кбит/с)

MediaInfo
Общее
Уникальный идентификатор : 234116122824239163865486286734104828526 (0xB02120093F5603DAB616B9E935119A6E)
Полное имя : H:\Strannaya.jizn.timoti.grina.2012.D.BDRip.1080p.nntt.org.mkv
Формат : Matroska
Версия формата : Version 2
Размер файла : 11,5 Гбайт
Продолжительность : 1 ч. 44 м.
Общий поток : 15,7 Мбит/сек
Дата кодирования : UTC 2012-12-04 01:43:42
Программа кодирования : mkvmerge v4.9.1 ('Ich will') built on Jul 11 2011 23:53:15
Библиотека кодирования : libebml v1.2.1 + libmatroska v1.1.1

Видео
Идентификатор : 1
Формат : AVC
Формат/Информация : Advanced Video Codec
Профиль формата : High@L4.1
Параметр CABAC формата : Да
Параметр ReFrames формата : 4 кадра
Идентификатор кодека : V_MPEG4/ISO/AVC
Продолжительность : 1 ч. 44 м.
Битрейт : 13,4 Мбит/сек
Ширина : 1920 пикселей
Высота : 1040 пикселей
Соотношение сторон : 1,85:1
Режим частоты кадров : Постоянный
Частота кадров : 23,976 кадра/сек
Цветовое пространство : YUV
Субдискретизация насыщенности : 4:2:0
Битовая глубина : 8 бит
Тип развёртки : Прогрессивная
Бит/(Пиксели*Кадры) : 0.279
Размер потока : 9,54 Гбайт (83%)
Заголовок : Strannaya.jizn.timoti.grina.2012.D.BDRip.1080p.NNM-CLUB
Библиотека кодирования : x264 core 125 r2208 d9d2288
Настройки программы : cabac=1 / ref=4 / deblock=1:-3:-3 / analyse=0x3:0x113 / me=umh / subme=10 / psy=1 / psy_rd=1.05:0.10 / mixed_ref=1 / me_range=32 / chroma_me=1 / trellis=2 / 8x8dct=1 / cqm=0 / deadzone=21,11 / fast_pskip=0 / chroma_qp_offset=-2 / threads=8 / lookahead_threads=1 / sliced_threads=0 / nr=0 / decimate=1 / interlaced=0 / bluray_compat=0 / constrained_intra=0 / bframes=6 / b_pyramid=2 / b_adapt=2 / b_bias=0 / direct=3 / weightb=1 / open_gop=0 / weightp=2 / keyint=250 / keyint_min=23 / scenecut=40 / intra_refresh=0 / rc=2pass / mbtree=0 / bitrate=13365 / ratetol=1.0 / qcomp=0.70 / qpmin=0 / qpmax=69 / qpstep=4 / cplxblur=20.0 / qblur=0.5 / ip_ratio=1.40 / pb_ratio=1.30 / aq=2:1.00
Язык : English
Default : Да
Forced : Нет

Аудио #1
Идентификатор : 2
Формат : AC-3
Формат/Информация : Audio Coding 3
Расширение режима : CM (complete main)
Параметр Endianness формата : Big
Идентификатор кодека : A_AC3
Продолжительность : 1 ч. 44 м.
Вид битрейта : Постоянный
Битрейт : 640 Кбит/сек
Каналы : 6 каналов
Расположение каналов : Front: L C R, Side: L R, LFE
Частота : 48,0 КГц
Битовая глубина : 16 бит
Метод сжатия : С потерями
Размер потока : 479 Мбайт (4%)
Заголовок : AC3.640.Kbps (6ch) Russian
Язык : Russian
Default : Да
Forced : Нет

Аудио #2
Идентификатор : 3
Формат : DTS
Формат/Информация : Digital Theater Systems
Режим : 16
Параметр Endianness формата : Big
Идентификатор кодека : A_DTS
Продолжительность : 1 ч. 44 м.
Вид битрейта : Постоянный
Битрейт : 1509 Кбит/сек
Каналы : 6 каналов
Расположение каналов : Front: L C R, Side: L R, LFE
Частота : 48,0 КГц
Битовая глубина : 24 бит
Метод сжатия : С потерями
Размер потока : 1,10 Гбайт (10%)
Заголовок : DTS.1510.Kbps (6ch) English
Язык : English
Default : Нет
Forced : Нет

Аудио #3
Идентификатор : 4
Формат : AC-3
Формат/Информация : Audio Coding 3
Расширение режима : CM (complete main)
Параметр Endianness формата : Big
Идентификатор кодека : A_AC3
Продолжительность : 1 ч. 44 м.
Вид битрейта : Постоянный
Битрейт : 192 Кбит/сек
Каналы : 2 канала
Расположение каналов : Front: L R
Частота : 48,0 КГц
Битовая глубина : 16 бит
Метод сжатия : С потерями
Размер потока : 144 Мбайт (1%)
Заголовок : AC3.192.Kbps (2ch) English.Commentary
Язык : English
Default : Нет
Forced : Нет

Текст #1
Идентификатор : 5
Формат : UTF-8
Идентификатор кодека : S_TEXT/UTF8
Идентификатор кодека/Информация : UTF-8 Plain Text
Заголовок : Russian (Full)
Язык : Russian
Default : Да
Forced : Нет

Текст #2
Идентификатор : 6
Формат : UTF-8
Идентификатор кодека : S_TEXT/UTF8
Идентификатор кодека/Информация : UTF-8 Plain Text
Заголовок : Russian (Forced)
Язык : Russian
Default : Нет
Forced : Нет

Текст #3
Идентификатор : 7
Формат : UTF-8
Идентификатор кодека : S_TEXT/UTF8
Идентификатор кодека/Информация : UTF-8 Plain Text
Заголовок : English (Full)
Язык : English
Default : Нет
Forced : Нет

Текст #4
Идентификатор : 8
Формат : UTF-8
Идентификатор кодека : S_TEXT/UTF8
Идентификатор кодека/Информация : UTF-8 Plain Text
Заголовок : English (SDH)
Язык : English
Default : Нет
Forced : Нет

Текст #5
Идентификатор : 9
Формат : UTF-8
Идентификатор кодека : S_TEXT/UTF8
Идентификатор кодека/Информация : UTF-8 Plain Text
Заголовок : English (Commentary)
Язык : English
Default : Нет
Forced : Нет

Меню
00:00:00.000 : en:00:00:00.000
00:07:41.670 : en:00:07:41.670
00:13:27.140 : en:00:13:27.140
00:19:17.823 : en:00:19:17.823
00:26:26.502 : en:00:26:26.502
00:31:36.186 : en:00:31:36.186
00:34:57.804 : en:00:34:57.804
00:38:03.114 : en:00:38:03.114
00:41:12.970 : en:00:41:12.970
00:45:14.253 : en:00:45:14.253
00:49:19.874 : en:00:49:19.874
00:57:21.521 : en:00:57:21.521
01:04:20.565 : en:01:04:20.565
01:09:59.612 : en:01:09:59.612
01:13:32.992 : en:01:13:32.992
01:21:51.990 : en:01:21:51.990
01:26:45.575 : en:01:26:45.575
01:31:30.151 : en:01:31:30.151
01:36:31.160 : en:01:36:31.160
01:39:48.357 : en:01:39:48.357
Свернуть
Скриншоты
Изображение
Изображение
Изображение
Изображение
Изображение
Свернуть
Не в сети
Профиль  
Начать новую темуОтветить на тему  [ 1 сообщение ] 
Вы не можете начинать темы
Вы не можете отвечать на сообщения
Вы не можете редактировать свои сообщения
Вы не можете удалять свои сообщения