Правила форума

  • В этом разделе создание новых тем Запрещено.
  • Для создания новых тем пользуйтесь Корневым разделом DVD и HD фильмы.
Начать новую темуОтветить на тему  [ Сообщений: 3 ] 
Торрент файл
Размер: 4 GB • Зарегистрирован: 3 года • Статус: Проверено
Скачан: 24 раза • Желающих скачать: 0 • Поблагодарили: 17 раз
 Раздают: 0  |  0 KB/s  ]   Качают: 0  |  0 KB/s  ] 
 Полного источника не было 21 день 
Сообщения
 Добавлено: 2013-11-13 13:39
Аватара пользователя
Стаж: 7 лет 7 месяцев
Возраст: 30
Сообщений: 43
Спасибок: 84
Странный Томас / Odd Thomas

Изображение


Год выпуска: 2013
Страна: США
Жанр: триллер, детектив, фэнтези, боевик
Продолжительность: 01:36:40
Перевод: Профессиональный (многоголосый закадровый) + Оригинальная звуковая дорожка
Субтитры: Нет

Режиссёр: Стивен Соммерс / Stephen Sommers
Сценарист: Стивен Соммерс, Дин Р. Кунц
Продюсер: Джон Балдеччи, Ховард Каплан, Стивен Соммерс
Оператор: Митчелл Амундсен
Композитор: Джон Свайхарт
В ролях: Антон Ельчин, Эддисон Тимлин, Гугу Мбата-Роу, Нико Торторелла, Пэттон Освальт, Уиллем Дефо, Эшли Соммерс, Леонор Варела, Мэттью Пейдж, Кэйси Мессер, Барни Леннинг, Кайл МакКивер

Описание: Главный герой наделен даром (или проклятием) видеть мертвецов. Каждый их визит становится началом очередной охоты на убийцу - призраки ведут Томаса на помощь тем, кому еще рано расставаться с жизнью. О способности героя знают только самые близкие друзья и любимая девушка. С их помощью ему предстоит отвести большую беду от маленького городка в центре пустыни Мохаве.

Мировая премьера: 6 апреля 2013
Бюджет: $27 000 000

Изображение
6.534(2731)
Изображение
6.5(6002)

Качество: BDRip 720p
Формат: MKV

Видео: AVC, 1280x532 (2.40:1), 4026 kbps, 23,976 fps, 0,239 bpp
Аудио #1: русский / AC3 / 5.1 / 48 kHz / 384 kbps / 16 bit [Профессиональный (многоголосый закадровый)]
Аудио #2: английский / DTS / 5.1 / 48 kHz / 1510 kbps / 24 bit [Оригинальная звуковая дорожка]
Субтитры: Нет

Изображение

"Знаете ли Вы, что..."
Когда Томас покидает больницу, на одном из знаков видна надпись «Мы верим в Странного» («In Odd We Trust»). Это название графической новеллы по циклу книг «Странный Томас», которая лежит в основе фильма.
Шон Пи Дидди Комбс и Фифти Сент первоначально рассматривались на роль Шамуса.
Съемки приостанавливались на несколько недель из-за финансовых проблем.
Лили Коллинз, Эмма Робертс, Кэт Деннингс и Портия Даблдэй рассматривались на роль Шторми. Коллинз была фавориткой, но отказалась, чтобы сняться в фильме «Белоснежка: Месть гномов» (2012).
Тим Роббинс рассматривался на роль Портера.
Изначально на роль Боба рассматривался Кевин Дж. О`Коннор.
Свернуть
"MediaInfo"
Общее
Уникальный идентификатор : 175441243243433475792013065757078108779 (0x83FCC11F547007C2AF10D270DA9CBA6B)
Полное имя : G:\Odd.Thomas.2013.BDRip.720p.mkv
Формат : Matroska
Версия формата : Version 2
Размер файла : 4,00 Гбайт
Продолжительность : 1 ч. 36 м.
Общий поток : 5922 Кбит/сек
Дата кодирования : UTC 2013-10-27 18:00:01
Программа кодирования : mkvmerge v5.8.0 ('No Sleep / Pillow') built on Sep 2 2012 15:37:04
Библиотека кодирования : libebml v1.2.3 + libmatroska v1.3.0

Видео
Идентификатор : 1
Формат : AVC
Формат/Информация : Advanced Video Codec
Профиль формата : High@L4.1
Параметр CABAC формата : Да
Параметр ReFrames формата : 12 кадров
Идентификатор кодека : V_MPEG4/ISO/AVC
Продолжительность : 1 ч. 36 м.
Битрейт : 3911 Кбит/сек
Ширина : 1280 пикселей
Высота : 532 пикселя
Соотношение сторон : 2,40:1
Режим частоты кадров : Постоянный
Частота кадров : 23,976 кадра/сек
Цветовое пространство : YUV
Субдискретизация насыщенности : 4:2:0
Битовая глубина : 8 бит
Тип развёртки : Прогрессивная
Бит/(Пиксели*Кадры) : 0.240
Размер потока : 2,64 Гбайт (66%)
Библиотека кодирования : x264 core 138 r2358 9e941d1
Настройки программы : cabac=1 / ref=12 / deblock=1:-1:-1 / analyse=0x3:0x113 / me=umh / subme=10 / psy=1 / psy_rd=1.00:0.15 / mixed_ref=1 / me_range=48 / chroma_me=1 / trellis=2 / 8x8dct=1 / cqm=0 / deadzone=21,11 / fast_pskip=1 / chroma_qp_offset=-3 / threads=12 / lookahead_threads=3 / sliced_threads=0 / nr=0 / decimate=1 / interlaced=0 / bluray_compat=0 / constrained_intra=0 / bframes=10 / b_pyramid=2 / b_adapt=2 / b_bias=0 / direct=3 / weightb=1 / open_gop=0 / weightp=2 / keyint=250 / keyint_min=24 / scenecut=40 / intra_refresh=0 / rc_lookahead=40 / rc=crf / mbtree=0 / crf=17.2 / qcomp=0.60 / qpmin=10 / qpmax=51 / qpstep=4 / vbv_maxrate=50000 / vbv_bufsize=62500 / crf_max=0.0 / nal_hrd=none / ip_ratio=1.40 / pb_ratio=1.30 / aq=2:1.00
Язык : English
Default : Да
Forced : Нет

Аудио #1
Идентификатор : 2
Формат : AC-3
Формат/Информация : Audio Coding 3
Расширение режима : CM (complete main)
Параметр Endianness формата : Big
Идентификатор кодека : A_AC3
Продолжительность : 1 ч. 36 м.
Вид битрейта : Постоянный
Битрейт : 384 Кбит/сек
Каналы : 6 каналов
Расположение каналов : Front: L C R, Side: L R, LFE
Частота : 48,0 КГц
Битовая глубина : 16 бит
Метод сжатия : С потерями
Размер потока : 266 Мбайт (6%)
Заголовок : закадровый (многоголосый)
Язык : Russian
Default : Да
Forced : Нет

Аудио #2
Идентификатор : 3
Формат : DTS
Формат/Информация : Digital Theater Systems
Режим : 16
Параметр Endianness формата : Big
Идентификатор кодека : A_DTS
Продолжительность : 1 ч. 36 м.
Вид битрейта : Постоянный
Битрейт : 1509 Кбит/сек
Каналы : 6 каналов
Расположение каналов : Front: L C R, Side: L R, LFE
Частота : 48,0 КГц
Битовая глубина : 24 бит
Метод сжатия : С потерями
Размер потока : 1,02 Гбайт (25%)
Заголовок : English
Язык : English
Default : Нет
Forced : Нет
Свернуть
"Скриншоты"
Изображение
Изображение
Изображение
Изображение
Изображение
Изображение
Изображение
Свернуть
_________________
Изображение

Изображение

Изображение
Не в сети
Профиль  
 Добавлено: 2013-12-10 14:21 (спустя 27 дней)
Стаж: 8 лет 7 месяцев
Сообщений: 137
Спасибок: 28
Лайков: 2
недавно книгу прочитал. Надо посмотреть что сняли.
Не в сети
Профиль  
 Добавлено: 2013-12-12 08:17 (спустя 1 день 17 часов)
Аватара пользователя
Стаж: 8 лет
Возраст: 29
Сообщений: 60
стремный.
Не в сети
Профиль  
Начать новую темуОтветить на тему  [ Сообщений: 3 ] 
Вы не можете начинать темы
Вы не можете отвечать на сообщения
Вы не можете редактировать свои сообщения
Вы не можете удалять свои сообщения