Правила форума

  • В этом разделе создание новых тем Запрещено.
  • Для создания новых тем пользуйтесь Корневым разделом DVD и HD фильмы.
Начать новую темуОтветить на тему  [ Сообщений: 3 ] 
Торрент файл
Размер: 6.37 GB • Зарегистрирован: 4 года 5 месяцев • Статус: T Временный релиз
Скачан: 45 раз • Желающих скачать: 0 • Поблагодарили: 4 раза
 Раздают: 0  |  0 KB/s  ]   Качают: 0  |  0 KB/s  ] 
 Полного источника не было 3 года 2 месяца 
Сообщения
 Добавлено: 2012-06-23 20:36
Книголюб
Аватара пользователя
Стаж: 7 лет 2 месяца
Сообщений: 2823
Спасибок: 48828
Лайков: 73
Страсть к перемене мест
Wanderlust

Изображение


Год выпуска: 2012
Страна: США
Слоган: «Leave your baggage behind.»
Жанр: комедия
Продолжительность: 01:38:06
Перевод: Любительский (многоголосый закадровый)

Режиссёр: Дэвид Уэйн
В ролях: Пол Радд, Дженнифер Энистон, Малин Акерман, Джастин Теру, Алан Алда, Кен Марино, Джо Ло Труглио, Кэтрин Хан, Керри Кенни, Лорен Эмброуз
Описание: Герои фильма Линда и Джордж — самые обыкновенные городские жители. И живут они в самом обыкновенном Нью-Йорке. Но что делать, когда быт и окружающие тебя люди, то, чем ты занимаешься, да и вообще всё вокруг, начинает тебя жутко раздражать? Выход один — сменить обстановку. Так и поступает семейная пара, меняя суматошный Нью-Йорк на более спокойный небольшой городок, чтобы отдохнуть, а заодно приобщиться к тамошней культуре.

Рейтинг MPAA: Рейтинг R (Подростки до 17 лет допускаются на фильм только в сопровождении одного из родителей)
Мировая премьера: 24 февраля 2012
Изображение 6.036 592

Качество: BDRip 720p
Формат: MKV
Видео кодек: H.264
Аудио кодек: AC3 (Dolby Digital)
Видео: 1280x694, 23 976 fps, 7 835 Kb/s 0.368Bits/Pixel
Аудио #1: 448 Kb/s (6 ch), 48.0 KHz [Russian]
Аудио #2: 640 Kb/s (6 ch), 48.0 KHz [English]
MediaInfo
General
Unique ID : 180407430823382805266675167164292664896 (0x87B9351301C3C13882E934D800B40E40)
Complete name : K:\Torrent\Strasti.k.peremene.mest..mkv
Format : Matroska
Format version : Version 2
File size : 6.37 GiB
Duration : 1h 38mn
Overall bit rate : 9 299 Kbps
Movie name : uniongang.tv
Encoded date : UTC 2012-06-19 09:36:20
Writing application : mkvmerge v5.6.0 ('Kenya Kane') built on May 27 2012 16:44:04
Writing library : libebml v1.2.3 + libmatroska v1.3.0

Video
ID : 1
Format : AVC
Format/Info : Advanced Video Codec
Format profile : High@L4.1
Format settings, CABAC : Yes
Format settings, ReFrames : 9 frames
Muxing mode : Header stripping
Codec ID : V_MPEG4/ISO/AVC
Duration : 1h 38mn
Bit rate : 7 835 Kbps
Width : 1 280 pixels
Height : 694 pixels
Display aspect ratio : 16:9
Frame rate : 23.976 fps
Color space : YUV
Chroma subsampling : 4:2:0
Bit depth : 8 bits
Scan type : Progressive
Bits/(Pixel*Frame) : 0.368
Stream size : 5.24 GiB (82%)
Title : x264
Writing library : x264 core 125 r2200 999b753
Encoding settings : cabac=1 / ref=9 / deblock=1:-3:-3 / analyse=0x3:0x113 / me=tesa / subme=11 / psy=1 / psy_rd=0.99:0.01 / mixed_ref=1 / me_range=32 / chroma_me=1 / trellis=2 / 8x8dct=1 / cqm=0 / deadzone=21,11 / fast_pskip=0 / chroma_qp_offset=-3 / threads=12 / lookahead_threads=2 / sliced_threads=0 / nr=0 / decimate=1 / interlaced=0 / bluray_compat=0 / constrained_intra=0 / bframes=6 / b_pyramid=2 / b_adapt=2 / b_bias=0 / direct=3 / weightb=1 / open_gop=0 / weightp=2 / keyint=240 / keyint_min=23 / scenecut=40 / intra_refresh=0 / rc_lookahead=80 / rc=2pass / mbtree=1 / bitrate=7835 / ratetol=1.0 / qcomp=0.70 / qpmin=0 / qpmax=69 / qpstep=4 / cplxblur=20.0 / qblur=0.5 / vbv_maxrate=40000 / vbv_bufsize=40000 / nal_hrd=none / ip_ratio=1.40 / aq=1:0.80 / zones=134390,140515,b=0.1
Language : English
Default : No
Forced : No

Audio #1
ID : 2
Format : AC-3
Format/Info : Audio Coding 3
Mode extension : CM (complete main)
Muxing mode : Header stripping
Codec ID : A_AC3
Duration : 1h 38mn
Bit rate mode : Constant
Bit rate : 448 Kbps
Channel(s) : 6 channels
Channel positions : Front: L C R, Side: L R, LFE
Sampling rate : 48.0 KHz
Bit depth : 16 bits
Compression mode : Lossy
Stream size : 314 MiB (5%)
Default : Yes
Forced : Yes

Audio #2
ID : 3
Format : AC-3
Format/Info : Audio Coding 3
Mode extension : CM (complete main)
Muxing mode : Header stripping
Codec ID : A_AC3
Duration : 1h 38mn
Bit rate mode : Constant
Bit rate : 384 Kbps
Channel(s) : 6 channels
Channel positions : Front: L C R, Side: L R, LFE
Sampling rate : 48.0 KHz
Bit depth : 16 bits
Compression mode : Lossy
Stream size : 269 MiB (4%)
Language : Russian
Default : No
Forced : No

Audio #3
ID : 4
Format : AC-3
Format/Info : Audio Coding 3
Mode extension : CM (complete main)
Muxing mode : Header stripping
Codec ID : A_AC3
Duration : 1h 38mn
Bit rate mode : Constant
Bit rate : 640 Kbps
Channel(s) : 6 channels
Channel positions : Front: L C R, Side: L R, LFE
Sampling rate : 48.0 KHz
Bit depth : 16 bits
Compression mode : Lossy
Stream size : 449 MiB (7%)
Language : English
Default : No
Forced : No

Text #1
ID : 5
Format : UTF-8
Codec ID : S_TEXT/UTF8
Codec ID/Info : UTF-8 Plain Text
Language : Russian
Default : Yes
Forced : Yes

Text #2
ID : 6
Format : UTF-8
Codec ID : S_TEXT/UTF8
Codec ID/Info : UTF-8 Plain Text
Language : English
Default : No
Forced : No

Menu
00:00:00.000 : en:Chapter 01
00:05:10.893 : en:Chapter 02
00:09:37.159 : en:Chapter 03
00:14:10.307 : en:Chapter 04
00:17:44.480 : en:Chapter 05
00:24:51.406 : en:Chapter 06
00:30:08.181 : en:Chapter 07
00:35:12.318 : en:Chapter 08
00:40:33.514 : en:Chapter 09
00:47:04.905 : en:Chapter 10
00:52:36.194 : en:Chapter 11
00:57:17.475 : en:Chapter 12
01:03:12.997 : en:Chapter 13
01:08:06.290 : en:Chapter 14
01:12:11.243 : en:Chapter 15
01:16:45.559 : en:Chapter 16
01:21:18.456 : en:Chapter 17
01:24:55.799 : en:Chapter 18
01:28:34.475 : en:Chapter 19
01:32:03.768 : en:Chapter 20


Свернуть

Скриншоты
Изображение
Изображение
Изображение
Изображение
Свернуть
Не в сети
Профиль  
 Добавлено: 2012-06-25 19:17 (спустя 1 день 22 часа)
Аватара пользователя
Стаж: 6 лет 1 месяц
Возраст: 35
Сообщений: 27
Спасибок: 5
Ну как фильмец?
_________________
Изображение
Не в сети
Профиль  
 Добавлено: 2012-06-25 23:12 (спустя 3 часа)
Аватара пользователя
Стаж: 7 лет 7 месяцев
Возраст: 28
Сообщений: 49
Лайков: 1
В таком переводе смотреть - себя не уважать.
И зачем я качал?
А выкладывали зачем?
Не в сети
Профиль  
Начать новую темуОтветить на тему  [ Сообщений: 3 ] 
Вы не можете начинать темы
Вы не можете отвечать на сообщения
Вы не можете редактировать свои сообщения
Вы не можете удалять свои сообщения