Правила форума

  • В этом разделе создание новых тем Запрещено.
  • Для создания новых тем пользуйтесь Корневым разделом DVD и HD фильмы.
Начать новую темуОтветить на тему  [ Сообщений: 2 ] 
Торрент файл
Размер: 6.38 GB • Зарегистрирован: 4 года 3 месяца • Статус: Проверено
Скачан: 50 раз • Желающих скачать: 0 • Поблагодарили: 8 раз
 Раздают: 0  |  0 KB/s  ]   Качают: 0  |  0 KB/s  ] 
 Полного источника не было 3 года 1 месяц 
Сообщения
 Добавлено: 2012-08-14 19:02
Книголюб
Аватара пользователя
Стаж: 7 лет 2 месяца
Сообщений: 2823
Спасибок: 48823
Лайков: 73
Стрела. Абсолютное оружие
Choi-jong-byeong-gi Hwal

Изображение


Год выпуска: 2011
Страна: Корея Южная
Жанр: боевик, история
Продолжительность: 02:02:13
Перевод: Любительский (двухголосый закадровый)

Режиссёр: Ким Хан Мин / Kim Han Min
В ролях: Пак Хэ Иль, Рю Сынг Рён, Мун Чхе Вон, Ким Му Ёль
Описание: В 1636 году полчища маньчжуров пришли на земли государства Чосон, неся с собой смерть и разорение. Во время нападения на одну из деревень враги взяли в плен Ча Ин, юную сестру лучника Нам И, и ее жениха Со Гуна. Отважный герой решает во что бы то ни стало отыскать родных и спасти их от незавидной доли рабов в чужой стране. С этой целью он, повесив на спину свой верный лук, доставшийся ему от отца, и колчан со стрелами, отправляется в Китай, преследуя отряд, напавший на его родную деревню. Вскоре слухи о выдающимся лучнике, не знающем поражения, достигают маньчжурского войска. Поймать и обезвредить неуловимого Нам И поручают полководцу Джушинта и его людям.
Рейтинг MPAA: Рейтинг R (Подростки до 17 лет допускаются на фильм только в сопровождении одного из родителей)
Изображение 7.112 401

Качество: BDRip 720p
Формат: MKV
Видео кодек: H.264
Аудио кодек: AC3 (Dolby Digital)
Видео: 1280x544 23.97fps 5515 Kbps 0.330Bits/Pixel
Аудио #1: RUS 48000Hz 6 каналов 448 Kbps
Аудио #2: KOR DTS 48000Hz 6ch 1510 Kbps
Субтитры: английские
Mediainfo
General
Unique ID : 254557069404135134042843823070870089275 (0xBF81E88335781468B87C43DBFDA5AE3B)
Complete name : K:\Torrent\War of the Arrows .mkv
Format : Matroska
Format version : Version 2
File size : 6.38 GiB
Duration : 2h 2mn
Overall bit rate : 7 474 Kbps
Movie name : Стрела. Абсолютное оружие \ Choi-jong-byeong-gi Hwal \ War of the Arrows (2011) BDRip 720p @ nextDred
Encoded date : UTC 2012-03-09 17:35:38
Writing application : mkvmerge v5.3.0 ('I could have danced') built on Feb 9 2012 10:38:07
Writing library : libebml v1.2.3 + libmatroska v1.3.0

Video
ID : 1
Format : AVC
Format/Info : Advanced Video Codec
Format profile : High@L4.0
Format settings, CABAC : Yes
Format settings, ReFrames : 8 frames
Codec ID : V_MPEG4/ISO/AVC
Duration : 2h 2mn
Bit rate : 5 515 Kbps
Width : 1 280 pixels
Height : 544 pixels
Display aspect ratio : 2.35:1
Frame rate : 23.976 fps
Color space : YUV
Chroma subsampling : 4:2:0
Bit depth : 8 bits
Scan type : Progressive
Bits/(Pixel*Frame) : 0.330
Stream size : 4.58 GiB (72%)
Title : Стрела. Абсолютное оружие \ Choi-jong-byeong-gi Hwal \ War of the Arrows (2011) BDRip 720p
Writing library : x264 core 120 r2164 da19765
Encoding settings : cabac=1 / ref=8 / deblock=1:-2:-2 / analyse=0x3:0x133 / me=umh / subme=10 / psy=1 / psy_rd=1.00:0.15 / mixed_ref=1 / me_range=24 / chroma_me=1 / trellis=2 / 8x8dct=1 / cqm=0 / deadzone=21,11 / fast_pskip=1 / chroma_qp_offset=-3 / threads=12 / sliced_threads=0 / nr=0 / decimate=1 / interlaced=0 / bluray_compat=0 / constrained_intra=0 / bframes=6 / b_pyramid=2 / b_adapt=2 / b_bias=0 / direct=3 / weightb=1 / open_gop=0 / weightp=2 / keyint=240 / keyint_min=23 / scenecut=40 / intra_refresh=0 / rc_lookahead=60 / rc=2pass / mbtree=1 / bitrate=5515 / ratetol=1.0 / qcomp=0.60 / qpmin=0 / qpmax=69 / qpstep=4 / cplxblur=20.0 / qblur=0.5 / ip_ratio=1.40 / aq=1:1.00
Language : Korean
Default : Yes
Forced : No

Audio #1
ID : 2
Format : DTS
Format/Info : Digital Theater Systems
Codec ID : A_DTS
Duration : 2h 2mn
Bit rate mode : Constant
Bit rate : 1 510 Kbps
Channel(s) : 6 channels
Channel positions : Front: L C R, Side: L R, LFE
Sampling rate : 48.0 KHz
Bit depth : 24 bits
Compression mode : Lossy
Stream size : 1.29 GiB (20%)
Language : Korean
Default : No
Forced : No

Audio #2
ID : 4
Format : AC-3
Format/Info : Audio Coding 3
Mode extension : CM (complete main)
Codec ID : A_AC3
Duration : 2h 2mn
Bit rate mode : Constant
Bit rate : 448 Kbps
Channel(s) : 6 channels
Channel positions : Front: L C R, Side: L R, LFE
Sampling rate : 48.0 KHz
Bit depth : 16 bits
Compression mode : Lossy
Stream size : 392 MiB (6%)
Title : DVO - GREEN TEA
Language : Russian
Default : Yes
Forced : No

Text
ID : 3
Format : UTF-8
Codec ID : S_TEXT/UTF8
Codec ID/Info : UTF-8 Plain Text
Language : English
Default : No
Forced : No


Свернуть

Скриншоты
Изображение
Изображение
Изображение
Изображение
Свернуть
Не в сети
Профиль  
 Добавлено: 2012-08-22 19:03 (спустя 8 дней)
Аватара пользователя
Стаж: 6 лет 7 месяцев
Возраст: 41
Сообщений: 28
Лайков: 3
Опять про хон-гильдона наверно
Не в сети
Профиль  
Начать новую темуОтветить на тему  [ Сообщений: 2 ] 
Вы не можете начинать темы
Вы не можете отвечать на сообщения
Вы не можете редактировать свои сообщения
Вы не можете удалять свои сообщения