Правила форума

  • В этом разделе создание новых тем Запрещено.
  • Для создания новых тем пользуйтесь Корневым разделом DVD и HD фильмы.
Начать новую темуОтветить на тему  [ Сообщений: 3 ] 
Торрент файл
Размер: 10.31 GB • Зарегистрирован: 5 лет 1 месяц • Статус: Проверено
Скачан: 115 раз • Желающих скачать: 0 • Поблагодарили: 42 раза
 Раздают: 0  |  0 KB/s  ]   Качают: 0  |  0 KB/s  ] 
 Полного источника не было 1 день 6 часов 
Сообщения
 Добавлено: 2011-10-22 13:07
Top-releaser
Аватара пользователя
Стаж: 8 лет 9 месяцев
Сообщений: 479
Спасибок: 20190
Лайков: 16
Стрелок

Shooter


«Раньше он верил в справедливость. Теперь - в возмездие.»

Изображение


Год выпуска: 2007
Страна: Изображение США; Di Bonaventura Pictures, Grosvenor Park Impact Productions, Paramount Pictures
Жанр: Боевик, триллер, криминал, детектив
Продолжительность: 02:05:41
Перевод: Профессиональный (дублированный) + Авторский (Живов Юрий) + Оригинальная дорожка
Субтитры: Русские , Английские


Режиссёр: Антуан Фукуа / Antoine Fuqua

В ролях: Марк Уолберг , Всеволод Кузнецов , Майкл Пенья , Пётр Иващенко , Дэнни Гловер , Рудольф Панков , Кейт Мара , Татьяна Шитова , Элиас Котеас , Валерий Сторожик , Рона Митра , Елена Борзунова

Описание: Опытный снайпер Бобби, работающий в ФБР, оказывается втянутым в заговор с целью убийства президента. Похоже, что его хотят подставить и «сдать» властям, поэтому ему необходимо как можно быстрее найти и обезвредить настоящего убийцу…


Качество: BDRip 1080p R5
Формат: MKV

Видео: AVC, 11920 x 800 (2.400) at 23.976 fps, 9999 kb/s

Аудио 1: AC3, 640 Кбит/сек, 6 канала(ов), 48,0 КГц (Дубляж)
Аудио 2: AC3, 448 Кбит/сек, 6 канала(ов), 48,0 КГц (Живов Юрий)
Аудио 3: AC3, 640, 6 канала(ов), 48,0 КГц (Оригинал)
Раздача: Изображение


Изображение
MediaInfo

Общее
Уникальный идентификатор : 184400334374223413232707986567404833706 (0x8ABA366B28FD3F86909D07C9B9A9CBAA)
Полное имя : C:\Users\Домашний\Desktop\Strelok. 2007. [nntt].mkv
Формат : Matroska
Размер файла : 10,3 Гбайт
Продолжительность : 2 ч. 5 м.
Общий поток : 11,7 Мбит/сек
Дата кодирования : UTC 2010-01-06 12:20:34
Программа кодирования : mkvmerge v3.0.0 ('Hang up your Hang-Ups') built on Jan 5 2010 15:50:53
Библиотека кодирования : libebml v0.7.9 + libmatroska v0.8.1

Видео
Идентификатор : 1
Формат : AVC
Формат/Информация : Advanced Video Codec
Профиль формата : High@L4.1
Параметр CABAC формата : Да
Параметр ReFrames формата : 5 кадры
Идентификатор кодека : V_MPEG4/ISO/AVC
Продолжительность : 2 ч. 5 м.
Битрейт : 9999 Кбит/сек
Ширина : 1920 пикс.
Высота : 800 пикс.
Соотношение сторон : 2,40:1
Частота кадров : 23,976 кадр/сек
Цветовое пространство : YUV
Подвыборка цветности : 4:2:0
Битовая глубина : 8 бит
Тип развёртки : Прогрессивная
Бит/(Пиксели*Кадры) : 0.272
Размер потока : 8,58 Гбайт (83%)
Заголовок : Shooter
Библиотека кодирования : x264 core 80 r1376kMod 3feaec2
Настройки программы : cabac=1 / ref=5 / deblock=1:-3:-3 / analyse=0x3:0x113 / me=umh / subme=10 / psy=1 / psy_rd=0.9:0.1 / mixed_ref=1 / me_range=48 / chroma_me=1 / trellis=2 / 8x8dct=1 / cqm=0 / deadzone=21,11 / fast_pskip=0 / chroma_qp_offset=-3 / threads=6 / sliced_threads=0 / nr=0 / decimate=1 / mbaff=0 / constrained_intra=0 / bframes=5 / b_pyramid=2 / b_adapt=2 / b_bias=0 / direct=3 / wpredb=1 / wpredp=2 / keyint=240 / keyint_min=24 / scenecut=40 / rc_lookahead=0 / rc=2pass / mbtree=0 / bitrate=9999 / ratetol=1.0 / qcomp=0.70 / qpmin=7 / qpmax=30 / qpstep=4 / cplxblur=20.0 / qblur=0.5 / vbv_maxrate=40000 / vbv_bufsize=62500 / ip_ratio=1.00 / pb_ratio=1.00 / aq=2:1.30:1.40
Язык : Russian

Аудио #1
Идентификатор : 2
Формат : AC-3
Формат/Информация : Audio Coding 3
Расширение режима : CM (complete main)
Идентификатор кодека : A_AC3
Продолжительность : 2 ч. 5 м.
Вид битрейта : Постоянный
Битрейт : 640 Кбит/сек
Канал(ы) : 6 канала(ов)
Расположение каналов : Front: L C R, Side: L R, LFE
Частота : 48,0 КГц
Битовая глубина : 16 бит
Метод сжатия : С потерями
Размер потока : 575 Мбайт (5%)
Заголовок : Shooter (DUB)
Язык : Russian

Аудио #2
Идентификатор : 3
Формат : AC-3
Формат/Информация : Audio Coding 3
Расширение режима : CM (complete main)
Идентификатор кодека : A_AC3
Продолжительность : 2 ч. 5 м.
Вид битрейта : Постоянный
Битрейт : 448 Кбит/сек
Канал(ы) : 6 канала(ов)
Расположение каналов : Front: L C R, Side: L R, LFE
Частота : 48,0 КГц
Битовая глубина : 16 бит
Метод сжатия : С потерями
Размер потока : 403 Мбайт (4%)
Заголовок : Shooter (zjivov)
Язык : Russian

Аудио #3
Идентификатор : 4
Формат : AC-3
Формат/Информация : Audio Coding 3
Расширение режима : CM (complete main)
Идентификатор кодека : A_AC3
Продолжительность : 2 ч. 5 м.
Вид битрейта : Постоянный
Битрейт : 640 Кбит/сек
Канал(ы) : 6 канала(ов)
Расположение каналов : Front: L C R, Side: L R, LFE
Частота : 48,0 КГц
Битовая глубина : 16 бит
Метод сжатия : С потерями
Размер потока : 575 Мбайт (5%)
Заголовок : Shooter
Язык : English

Текст #1
Идентификатор : 5
Формат : VobSub
Режим смешивания : zlib
Идентификатор кодека : S_VOBSUB
Идентификатор кодека/Информация : The same subtitle format used on DVDs
Заголовок : Shooter
Язык : Russian

Текст #2
Идентификатор : 6
Формат : VobSub
Режим смешивания : zlib
Идентификатор кодека : S_VOBSUB
Идентификатор кодека/Информация : The same subtitle format used on DVDs
Заголовок : Shooter
Язык : English

Свернуть
Скриншоты
Изображение
Изображение
Изображение
Изображение
Изображение
Свернуть
_________________
Изображение
Изображение
Не в сети
Профиль  
 Добавлено: 2013-01-19 04:27 (спустя 1 год 2 месяца)
Модератор
Аватара пользователя
Стаж: 9 лет 1 месяц
Возраст: 29
Сообщений: 1620
Спасибок: 1589
Лайков: 11
релизу год и два месяца, но никто не обратил внимание на разрешение 11920 x 800. ни разу такого не видел)))
_________________
ИзображениеИзображение
Core i5 4670K 4 ГГц / MSI Z87 G45 Gaming / 2x ASUS GTX660 2 Gb - SLI / 16 Gb DDR3 CORSAIR 1600 Mhz / Microlab 5.1 X15 / SSD A-Data 128 Gb + Seagate 1 Tb + Seagate 1 Tb / Philips 24'(1920x1080) + LG 22'(1680x1050)
Квас как танк?
Изображение
Свернуть
Не в сети
Профиль  
 Добавлено: 2013-03-23 19:17 (спустя 2 месяца 4 дня)
Аватара пользователя
Стаж: 5 лет 9 месяцев
Возраст: 28
Сообщений: 5
Раздайте пожалуйста!
Не в сети
Профиль  
Начать новую темуОтветить на тему  [ Сообщений: 3 ] 
Вы не можете начинать темы
Вы не можете отвечать на сообщения
Вы не можете редактировать свои сообщения
Вы не можете удалять свои сообщения