Правила форума

  • В этом разделе создание новых тем Запрещено.
  • Для создания новых тем пользуйтесь Корневым разделом DVD и HD фильмы.
Начать новую темуОтветить на тему  [ Сообщений: 3 ] 
Торрент файл
Размер: 24.25 GB • Зарегистрирован: 1 год 5 месяцев • Статус: T Временный релиз
Скачан: 76 раз • Желающих скачать: 0 • Поблагодарили: 13 раз
 Раздают: 1  |  0 KB/s  ]   Качают: 0  |  0 KB/s  ] 
Сообщения
 Добавлено: 2015-06-26 12:52
RG-ELEKTRO
Аватара пользователя
Стаж: 2 года 3 месяца
Сообщений: 7928
Спасибок: 53805
Лайков: 3304
Стрингер / Nightcrawler




Изображение


Год выпуска: 2014
Страна: США
Жанр: триллер, драма, криминал
Продолжительность: 01:52:33
Перевод: Профессиональный (многоголосый, закадровый) [студия "Омикрон"]

Режиссер: Дэн Гилрой

В ролях: Джейк Джилленхол, Рене Руссо, Билл Пэкстон, Джонни Койн, Энн МакДэниелс, Риз Ахмед, Джейми МакШейн, Кэтлин Йорк, Эрик Ланж, Майкл Хайатт

О фильме:
Молодой человек сталкивается с подпольным миром внештатной криминальной журналистики в Лос-Анджелесе.
Изображение Изображение
Качество: BDRip 1080p
Формат: MKV
Видео: MPEG-4 AVC, 1920x800, 23.976 fps, 19,9 Мбит/сек
Аудио #1: 48 kHz, DTS, 3/2 (L,C,R,l,r) + LFE ch, ~1509.00 kbps avg - Многоголосый закадровый, "Омикрон"|
Аудио #2: 48 kHz, DTS, 3/2 (L,C,R,l,r) + LFE ch, ~1509.00 kbps avg - |Авторский, Ю.Сербин|
Аудио #3: 48 kHz, DTS, 3/2 (L,C,R,l,r) + LFE ch, ~1509.00 kbps avg - |Авторский, А.Матвеев|
Аудио #4: 48 kHz, DTS, 3/2 (L,C,R,l,r) + LFE ch, ~1509.00 kbps avg - |Авторский, Д.Есарев|
Аудио #5: Ukrainian: 48 kHz, DTS, 3/2 (L,C,R,l,r) + LFE ch, ~1509.00 kbps avg
Аудио #6: English: 48 kHz, DTS, 3/2 (L,C,R,l,r) + LFE ch, ~1509.00 kbps avg
Субтитры: Russian (А.Матвеев), English
"MI"
Общее
Уникальный идентификатор : 252202488505819473762791167414504004267 (0xBDBC6EB61B69AC768A4B3478ABA81AAB)
Полное имя : [2014] Стрингер [BDRip] [1080p].mkv
Формат : Matroska
Версия формата : Version 4 / Version 2
Размер файла : 24,2 Гбайт
Продолжительность : 1 ч. 57 м.
Общий поток : 29,5 Мбит/сек
Название фильма : Стрингер / Nightcrawler (2014) BDRip [1080p]
Дата кодирования : UTC 2015-06-26 01:36:50
Программа кодирования : mkvmerge v7.8.0 ('River Man') 32bit built on Mar 27 2015 16:18:02
Библиотека кодирования : libebml v1.3.1 + libmatroska v1.4.2
_STATISTICS_WRITING_APP : mkvmerge v7.8.0 ('River Man') 32bit built on Mar 27 2015 16:18:02
_STATISTICS_WRITING_DATE_UTC : 2015-06-26 01:36:50
_STATISTICS_TAGS : BPS DURATION NUMBER_OF_FRAMES NUMBER_OF_BYTES
DURATION : 01:57:40.448000000
NUMBER_OF_FRAMES : 661922
NUMBER_OF_BYTES : 1331787064

Видео
Идентификатор : 1
Формат : AVC
Формат/Информация : Advanced Video Codec
Профиль формата : High@L4.1
Параметр CABAC формата : Да
Параметр ReFrames формата : 5 кадров
Идентификатор кодека : V_MPEG4/ISO/AVC
Продолжительность : 1 ч. 57 м.
Битрейт : 19,9 Мбит/сек
Ширина : 1920 пикселей
Высота : 800 пикселей
Соотношение сторон : 2,40:1
Режим частоты кадров : Постоянный
Частота кадров : 23,976 кадра/сек
Цветовое пространство : YUV
Субдискретизация насыщенности : 4:2:0
Битовая глубина : 8 бит
Тип развёртки : Прогрессивная
Бит/(Пиксели*Кадры) : 0.539
Размер потока : 16,3 Гбайт (67%)
Заголовок : [2014] Стрингер / Nightcrawler [BDRip] [1080p]
Библиотека кодирования : x264 core 146 r2538kMod 121396c
Настройки программы : cabac=1 / ref=5 / deblock=1:-3:-3 / analyse=0x3:0x133 / me=umh / subme=11 / psy=1 / fade_compensate=0.00 / psy_rd=1.00:0.00 / mixed_ref=1 / me_range=48 / chroma_me=1 / trellis=2 / 8x8dct=1 / cqm=0 / deadzone=21,11 / fast_pskip=0 / chroma_qp_offset=-2 / threads=12 / lookahead_threads=2 / sliced_threads=0 / nr=0 / decimate=1 / interlaced=0 / bluray_compat=0 / constrained_intra=0 / fgo=0 / bframes=9 / b_pyramid=2 / b_adapt=2 / b_bias=0 / direct=3 / weightb=1 / open_gop=0 / weightp=2 / keyint=240 / keyint_min=22 / scenecut=40 / intra_refresh=0 / rc_lookahead=60 / rc=crf / mbtree=0 / crf=18.0000 / qcomp=0.65 / qpmin=0 / qpmax=69 / qpstep=4 / vbv_maxrate=50000 / vbv_bufsize=62500 / crf_max=0.0 / nal_hrd=none / filler=0 / ip_ratio=1.35 / pb_ratio=1.25 / aq=3:0.75
Язык : English
Default : Да
Forced : Нет
Цветовой диапазон : Limited
Основные цвета : BT.709
Характеристики трансфера : BT.709
Коэффициенты матрицы : BT.709
_STATISTICS_WRITING_APP : mkvmerge v7.8.0 ('River Man') 32bit built on Mar 27 2015 16:18:02
_STATISTICS_WRITING_DATE_UTC : 2015-06-26 01:36:50
_STATISTICS_TAGS : BPS DURATION NUMBER_OF_FRAMES NUMBER_OF_BYTES
DURATION : 01:57:34.506000000
NUMBER_OF_FRAMES : 169139
NUMBER_OF_BYTES : 18036577475

Аудио #1
Идентификатор : 2
Формат : DTS
Формат/Информация : Digital Theater Systems
Режим : 16
Параметр Endianness формата : Big
Идентификатор кодека : A_DTS
Продолжительность : 1 ч. 57 м.
Вид битрейта : Постоянный
Битрейт : 1509 Кбит/сек
Каналы : 6 каналов
Расположение каналов : Front: L C R, Side: L R, LFE
Частота : 48,0 КГц
Битовая глубина : 24 бит
Метод сжатия : С потерями
Задержка видео : 8 мс.
Размер потока : 1,24 Гбайт (5%)
Заголовок : Многоголосый закадровый - «Омикрон»
Язык : Russian
Default : Да
Forced : Нет

Аудио #2
Идентификатор : 3
Формат : DTS
Формат/Информация : Digital Theater Systems
Режим : 16
Параметр Endianness формата : Big
Идентификатор кодека : A_DTS
Продолжительность : 1 ч. 57 м.
Вид битрейта : Постоянный
Битрейт : 1509 Кбит/сек
Каналы : 6 каналов
Расположение каналов : Front: L C R, Side: L R, LFE
Частота : 48,0 КГц
Битовая глубина : 24 бит
Метод сжатия : С потерями
Задержка видео : 8 мс.
Размер потока : 1,24 Гбайт (5%)
Заголовок : Одноголосый закадровый - Ю.Сербин - ненормативная лексика
Язык : Russian
Default : Нет
Forced : Нет

Аудио #3
Идентификатор : 4
Формат : DTS
Формат/Информация : Digital Theater Systems
Режим : 16
Параметр Endianness формата : Big
Идентификатор кодека : A_DTS
Продолжительность : 1 ч. 57 м.
Вид битрейта : Постоянный
Битрейт : 1509 Кбит/сек
Каналы : 6 каналов
Расположение каналов : Front: L C R, Side: L R, LFE
Частота : 48,0 КГц
Битовая глубина : 24 бит
Метод сжатия : С потерями
Задержка видео : 8 мс.
Размер потока : 1,24 Гбайт (5%)
Заголовок : Одноголосый закадровый - А.Матвеев - ненормативная лексика
Язык : Russian
Default : Нет
Forced : Нет

Аудио #4
Идентификатор : 5
Формат : DTS
Формат/Информация : Digital Theater Systems
Режим : 16
Параметр Endianness формата : Big
Идентификатор кодека : A_DTS
Продолжительность : 1 ч. 57 м.
Вид битрейта : Постоянный
Битрейт : 1509 Кбит/сек
Каналы : 6 каналов
Расположение каналов : Front: L C R, Side: L R, LFE
Частота : 48,0 КГц
Битовая глубина : 24 бит
Метод сжатия : С потерями
Задержка видео : 8 мс.
Размер потока : 1,24 Гбайт (5%)
Заголовок : Одноголосый закадровый - Д.Есарев - ненормативная лексика
Язык : Russian
Default : Нет
Forced : Нет

Аудио #5
Идентификатор : 6
Формат : DTS
Формат/Информация : Digital Theater Systems
Режим : 16
Параметр Endianness формата : Big
Идентификатор кодека : A_DTS
Продолжительность : 1 ч. 57 м.
Вид битрейта : Постоянный
Битрейт : 1509 Кбит/сек
Каналы : 6 каналов
Расположение каналов : Front: L C R, Side: L R, LFE
Частота : 48,0 КГц
Битовая глубина : 24 бит
Метод сжатия : С потерями
Задержка видео : 8 мс.
Размер потока : 1,24 Гбайт (5%)
Заголовок : Многоголосый закадровый - «Цікава ідея»
Язык : Ukrainian
Default : Нет
Forced : Нет

Аудио #6
Идентификатор : 7
Формат : DTS
Формат/Информация : Digital Theater Systems
Режим : 16
Параметр Endianness формата : Big
Идентификатор кодека : A_DTS
Продолжительность : 1 ч. 57 м.
Вид битрейта : Постоянный
Битрейт : 1509 Кбит/сек
Каналы : 6 каналов
Расположение каналов : Front: L C R, Side: L R, LFE
Частота : 48,0 КГц
Битовая глубина : 24 бит
Метод сжатия : С потерями
Задержка видео : 8 мс.
Размер потока : 1,24 Гбайт (5%)
Заголовок : Оригинальный
Язык : English
Default : Нет
Forced : Нет

Текст #1
Идентификатор : 8
Формат : UTF-8
Идентификатор кодека : S_TEXT/UTF8
Идентификатор кодека/Информация : UTF-8 Plain Text
Заголовок : Russian - Full - А. Матвеев
Язык : Russian
Default : Нет
Forced : Нет

Текст #2
Идентификатор : 9
Формат : UTF-8
Идентификатор кодека : S_TEXT/UTF8
Идентификатор кодека/Информация : UTF-8 Plain Text
Заголовок : English - Full
Язык : English
Default : Нет
Forced : Нет

Текст #3
Идентификатор : 10
Формат : UTF-8
Идентификатор кодека : S_TEXT/UTF8
Идентификатор кодека/Информация : UTF-8 Plain Text
Заголовок : English - SDH
Язык : English
Default : Нет
Forced : Нет

Меню
00:00:00.000 : en:Chapter 01
00:09:00.164 : en:Chapter 02
00:15:51.825 : en:Chapter 03
00:23:25.278 : en:Chapter 04
00:30:43.800 : en:Chapter 05
00:37:55.898 : en:Chapter 06
00:46:31.038 : en:Chapter 07
00:52:52.252 : en:Chapter 08
01:00:29.584 : en:Chapter 09
01:07:02.727 : en:Chapter 10
01:17:59.383 : en:Chapter 11
01:21:36.349 : en:Chapter 12
01:30:00.269 : en:Chapter 13
01:36:02.298 : en:Chapter 14
01:44:40.607 : en:Chapter 15
01:53:20.084 : en:Chapter 16
Свернуть

"Скриншоты:"
Изображение
Изображение
Изображение
Свернуть

Изображение


Изображение Изображение
_________________
Не ищите меня в "ВКонтакте", в "Одноклассниках" меня нет - я на трекерах сижу!


Последний раз редактировалось Оля 88 2015-08-13 19:08, всего редактировалось 1 раз.
Не в сети
Профиль  
 Добавлено: 2015-06-26 13:35 (спустя 42 минуты)
Аватара пользователя
Стаж: 5 лет 3 месяца
Возраст: 29
Сообщений: 470
Спасибок: 779
Лайков: 13
представляю диалог на уроке английского:
- что такое nightcrawler?
- ну это стрингер
_________________
Ростелеком в частном доме
Изображение
 Dagel™ и Ilmerish нравится это.
Не в сети
Профиль  
 Добавлено: 2015-07-21 14:27 (спустя 25 дней)
Аватара пользователя
Стаж: 8 лет 11 месяцев
Сообщений: 132
Лайков: 7
Классный фильм, рекомендую. Но после просмотра становится не по себе от некоторых мыслей, даже ужасно.
Не в сети
Профиль  
Начать новую темуОтветить на тему  [ Сообщений: 3 ] 
Вы не можете начинать темы
Вы не можете отвечать на сообщения
Вы не можете редактировать свои сообщения
Вы не можете удалять свои сообщения