Правила форума

  • В этом разделе создание новых тем Запрещено.
  • Для создания новых тем пользуйтесь Корневым разделом DVD и HD фильмы.
Начать новую темуОтветить на тему  [ 1 сообщение ] 
Торрент файл
Размер: 11.41 GB • Зарегистрирован: 5 лет 1 месяц • Статус: Проверено
Скачан: 7 раз • Желающих скачать: 0 • Поблагодарили: 5 раз
 Раздают: 0  |  0 KB/s  ]   Качают: 0  |  0 KB/s  ] 
 Полного источника не было 3 года 2 месяца 
Сообщения
 Добавлено: 2011-10-20 12:45
Модератор релиз-группы
Аватара пользователя
Стаж: 9 лет 1 месяц
Возраст: 97
Сообщений: 11659
Спасибок: 6532
Лайков: 269
Стриптиз / Striptease

Изображение


Страна: США
Жанр: триллер, комедия, криминал
Год выпуска: 1996
Продолжительность: 01:52:13
Перевод : Двухголосый закадровый
Одноголосый закадровый (А.Гаврилов)
Одноголосый закадровый (Ю.Живов)
Оригинальная звуковая дорожка
Субтитры: русские, английские
Режиссер: Эндрю Бергман / Andrew Bergman

В ролях: Дэми Мур, Берт Рейнольдс, Арманд Ассанте, Винг Реймс, Роберт Патрик, Пол Гилфойл, Джерри Грейсон, Румер Уиллис, Роберт Стэнтон, Уильям Хилл

Описание: Эрин Гран - женщина, которая танцует стриптиз, чтобы решить серьезную финансовую проблему. Но все осложняется, когда сластолюбивый конгрессмен теряет из-за нее голову.
Деньги, шантаж, убийство - у законодателя в руках много способов получить желаемое, но против Эрин он бессилен. Она разоблачается, чтобы выжить. Но подлинное разоблачение грозит политикану...
Изображение
Качество: HDTV 1080i
Контейнер: mkv
Видеокодек: MPEG-4 AVC Video
Аудиокодек: AC3
Видео: MPEG-4 AVC Video / 12992 kbps / 1080i / 50 fps / 16:9 / Main Profile 4.0
Аудио #1: Russian / Dolby Digital Audio / 5.1 / 48 kHz / 384 kbps / DN -4dB (DVO)
Аудио #2: Russian / Dolby Digital Audio / 5.1 / 48 kHz / 384 kbps / DN -4dB (А.Гаврилов)
Аудио #3: Russian / Dolby Digital Audio / 5.1 / 48 kHz / 384 kbps / DN -4dB (Ю.Живов)
Аудио #4: English / Dolby Digital Audio / 5.1 / 48 kHz / 384 kbps / DN -4dB
Субтитры: русские, английские

скриншоты
Изображение

Изображение

Изображение

Изображение
Свернуть
mi
Format : Matroska
Format version : Version 2
File size : 11.4 GiB
Duration : 1h 52mn
Overall bit rate : 14.6 Mbps
Encoded date : UTC 2011-10-19 21:15:43
Writing application : mkvmerge v5.0.1 ('Es ist Sommer') built on Oct 9 2011 11:55:43
Writing library : libebml v1.2.2 + libmatroska v1.3.0

Video
ID : 1
Format : AVC
Format/Info : Advanced Video Codec
Format profile : Main@L4.0
Format settings, CABAC : Yes
Format settings, ReFrames : 4 frames
Format settings, GOP : M=11, N=12
Codec ID : V_MPEG4/ISO/AVC
Duration : 1h 52mn
Bit rate mode : Variable
Bit rate : 12.7 Mbps
Maximum bit rate : 40.0 Mbps
Width : 1 920 pixels
Height : 1 080 pixels
Display aspect ratio : 16:9
Frame rate : 50.000 fps
Original frame rate : 25.000 fps
Color space : YUV
Chroma subsampling : 4:2:0
Bit depth : 8 bits
Scan type : Interlaced
Scan order : Top Field First
Bits/(Pixel*Frame) : 0.123
Stream size : 9.98 GiB (87%)

Audio #1
ID : 2
Format : AC-3
Format/Info : Audio Coding 3
Mode extension : CM (complete main)
Codec ID : A_AC3
Duration : 1h 52mn
Bit rate mode : Constant
Bit rate : 384 Kbps
Channel(s) : 6 channels
Channel positions : Front: L C R, Side: L R, LFE
Sampling rate : 48.0 KHz
Bit depth : 16 bits
Compression mode : Lossy
Stream size : 308 MiB (3%)

Audio #2
ID : 3
Format : AC-3
Format/Info : Audio Coding 3
Mode extension : CM (complete main)
Codec ID : A_AC3
Duration : 1h 52mn
Bit rate mode : Constant
Bit rate : 384 Kbps
Channel(s) : 6 channels
Channel positions : Front: L C R, Side: L R, LFE
Sampling rate : 48.0 KHz
Bit depth : 16 bits
Compression mode : Lossy
Stream size : 308 MiB (3%)

Audio #3
ID : 4
Format : AC-3
Format/Info : Audio Coding 3
Mode extension : CM (complete main)
Codec ID : A_AC3
Duration : 1h 52mn
Bit rate mode : Constant
Bit rate : 384 Kbps
Channel(s) : 6 channels
Channel positions : Front: L C R, Side: L R, LFE
Sampling rate : 48.0 KHz
Bit depth : 16 bits
Compression mode : Lossy
Stream size : 308 MiB (3%)

Audio #4
ID : 5
Format : AC-3
Format/Info : Audio Coding 3
Mode extension : CM (complete main)
Codec ID : A_AC3
Duration : 1h 52mn
Bit rate mode : Constant
Bit rate : 384 Kbps
Channel(s) : 6 channels
Channel positions : Front: L C R, Side: L R, LFE
Sampling rate : 48.0 KHz
Bit depth : 16 bits
Compression mode : Lossy
Stream size : 308 MiB (3%)

Text #1
ID : 6
Format : PGS
Muxing mode : zlib
Codec ID : S_HDMV/PGS
Codec ID/Info : The same subtitle format used on BDs/HD-DVDs

Text #2
ID : 7
Format : PGS
Muxing mode : zlib
Codec ID : S_HDMV/PGS
Codec ID/Info : The same subtitle format used on BDs/HD-DVDs

Свернуть
_________________
Изображение
Не в сети
Профиль  
Начать новую темуОтветить на тему  [ 1 сообщение ] 
Вы не можете начинать темы
Вы не можете отвечать на сообщения
Вы не можете редактировать свои сообщения
Вы не можете удалять свои сообщения