Правила форума

  • В этом разделе создание новых тем Запрещено.
  • Для создания новых тем пользуйтесь Корневым разделом DVD и HD фильмы.
Начать новую темуОтветить на тему  [ 1 сообщение ] 
Торрент файл
Размер: 9.8 GB • Зарегистрирован: 4 года 8 месяцев • Статус: Проверено
Скачан: 38 раз • Желающих скачать: 0 • Поблагодарили: 4 раза
 Раздают: 0  |  0 KB/s  ]   Качают: 0  |  0 KB/s  ] 
 Полного источника не было 2 года 10 месяцев 
Сообщения
 Добавлено: 2012-04-01 23:45
Top-releaser
Аватара пользователя
Стаж: 7 лет 3 месяца
Возраст: 25
Сообщений: 1036
Спасибок: 2694
Лайков: 9
Стукачка
The Whistleblower


«Нет ничего опасней правды»

Изображение


Год выхода: 2010
Страна: Германия, Канада

Жанр: триллер, драма, биография
Продолжительность: 01:51:46
Перевод: Профессиональное (многоголосое) [лицензия]

Режиссер: Лариса Кондрацки
Сценарий: Лариса Кондрацки, Eilis Kirwan
Продюсер: Эми Кауфман, Кристина Пиовесан, Селин Рэттрэй, ...
Оператор: Киран МакГиган
Композитор: Майкл Дэнна

В ролях: Рейчел Вайс, Ванесса Редгрейв, Моника Беллуччи, Дэвид Стрэтэйрн, Николай Ли Каас, Паула Шрамм, Александру Поточан, Уильям Хоуп

Описание: Кэтрин Болковач — коп из Небраски, по воле жизненных обстоятельств, направляться миротворцем в Боснию, и сталкивается там с системой торговли секс-рабынями. В это время в Боснии царит хаос после проведения военных действий. Расследование приводит Кэтрин в самое сердце подпольной работорговли, в которой погрязли не только властные структуры Боснии, но и сотрудники ООН. В попытке вскрыть истину, Кэтрин находит женщин, которые готовы дать показания об участи секс-рабынь. Теперь только они могут пролить правду на структуры ООН, творившие бесчинства в Боснии.

Изображение

Изображение

Качество BDRip 1080p R5
Формат: Mkv

Видео: MPEG4 Video (H264) 1920x1080 23.98fps 10.7 Mbps
Аудио 1: Dolby AC3 48000Hz 6ch 384 Kbps
Аудио 2: Dts 48000Hz 6ch 1 510 Kbps
Subtitle: Utf-8

Изображение

MediaInfo
General
Unique ID : 224029034252071757073296341426719957874 (0xA88A6C2C1813EF27B9C2ED65B1842372)
Complete name : I:\Download\Stukachka.DVD_RG(1080p).mkv
Format : Matroska
Format version : Version 2
File size : 9.80 GiB
Duration : 1h 51mn
Overall bit rate : 12.6 Mbps
Movie name : rikutzza
Encoded date : UTC 2012-05-24 06:05:03
Writing application : mkvmerge v5.2.0 ('I can't explain') built on Dec 18 2011 18:12:03
Writing library : libebml v1.2.3 + libmatroska v1.3.0

Video
ID : 1
Format : AVC
Format/Info : Advanced Video Codec
Format profile : High@L4.1
Format settings, CABAC : Yes
Format settings, ReFrames : 4 frames
Codec ID : V_MPEG4/ISO/AVC
Duration : 1h 51mn
Bit rate : 10.7 Mbps
Width : 1 920 pixels
Height : 1 080 pixels
Display aspect ratio : 16:9
Frame rate : 23.976 fps
Color space : YUV
Chroma subsampling : 4:2:0
Bit depth : 8 bits
Scan type : Progressive
Bits/(Pixel*Frame) : 0.214
Stream size : 8.12 GiB (83%)
Title : The.Whistleblower.2010.Bluray.1080p.DTS.x264-CHD
Writing library : x264 core 115 r2008 4c552d8
Encoding settings : cabac=1 / ref=4 / deblock=1:-3:-3 / analyse=0x3:0x113 / me=umh / subme=10 / psy=1 / psy_rd=1.00:0.05 / mixed_ref=1 / me_range=48 / chroma_me=1 / trellis=2 / 8x8dct=1 / cqm=0 / deadzone=21,11 / fast_pskip=0 / chroma_qp_offset=-2 / threads=12 / sliced_threads=0 / nr=0 / decimate=1 / interlaced=0 / bluray_compat=0 / constrained_intra=0 / bframes=6 / b_pyramid=2 / b_adapt=2 / b_bias=0 / direct=3 / weightb=1 / open_gop=0 / weightp=2 / keyint=250 / keyint_min=23 / scenecut=40 / intra_refresh=0 / rc_lookahead=60 / rc=2pass / mbtree=1 / bitrate=10656 / ratetol=1.0 / qcomp=0.70 / qpmin=0 / qpmax=69 / qpstep=4 / cplxblur=20.0 / qblur=0.5 / vbv_maxrate=40000 / vbv_bufsize=30000 / nal_hrd=none / ip_ratio=1.40 / aq=2:0.90
Language : English
Default : Yes
Forced : Yes

Audio #1
ID : 2
Format : AC-3
Format/Info : Audio Coding 3
Mode extension : CM (complete main)
Codec ID : A_AC3
Duration : 1h 51mn
Bit rate mode : Constant
Bit rate : 384 Kbps
Channel(s) : 6 channels
Channel positions : Front: L C R, Side: L R, LFE
Sampling rate : 48.0 KHz
Bit depth : 16 bits
Compression mode : Lossy
Stream size : 307 MiB (3%)
Title : AC3 5.1 @ 384 kb/s [Russian MVO, R5]
Language : Russian
Default : Yes
Forced : Yes

Audio #2
ID : 3
Format : DTS
Format/Info : Digital Theater Systems
Codec ID : A_DTS
Duration : 1h 51mn
Bit rate mode : Constant
Bit rate : 1 510 Kbps
Channel(s) : 6 channels
Channel positions : Front: L C R, Side: L R, LFE
Sampling rate : 48.0 KHz
Bit depth : 24 bits
Compression mode : Lossy
Stream size : 1.18 GiB (12%)
Title : DTS 5.1 @ 1510 kb/s [English]
Language : English
Default : No
Forced : No

Text #1
ID : 4
Format : UTF-8
Codec ID : S_TEXT/UTF8
Codec ID/Info : UTF-8 Plain Text
Title : Russian
Language : Russian
Default : No
Forced : No

Text #2
ID : 5
Format : UTF-8
Codec ID : S_TEXT/UTF8
Codec ID/Info : UTF-8 Plain Text
Title : English
Language : English
Default : No
Forced : No


Свернуть
Скриншоты

Изображение
Изображение
Изображение
Изображение
Изображение

Свернуть
Не в сети
Профиль  
Начать новую темуОтветить на тему  [ 1 сообщение ] 
Вы не можете начинать темы
Вы не можете отвечать на сообщения
Вы не можете редактировать свои сообщения
Вы не можете удалять свои сообщения