Правила форума

  • В этом разделе создание новых тем Запрещено.
  • Для создания новых тем пользуйтесь Корневым разделом DVD и HD фильмы.
Начать новую темуОтветить на тему  [ Сообщений: 3 ] 
Торрент файл
Размер: 4.67 GB • Зарегистрирован: 4 года 6 месяцев • Статус: Проверено
Скачан: 5 раз • Желающих скачать: 0 • Поблагодарили: 2 раза
 Раздают: 0  |  0 KB/s  ]   Качают: 0  |  0 KB/s  ] 
 Полного источника не было 3 года 2 месяца 
Сообщения
 Добавлено: 2012-05-10 07:26
Аватара пользователя
Стаж: 8 лет 6 месяцев
Возраст: 28
Сообщений: 194
Спасибок: 515
Лайков: 2
Стукачка / The Whistleblower


«Nothing is more dangerous than the truth.»

Изображение
Год выпуска: 2010
Страна: Германия, Канада
Жанр: триллер, драма, биография
Продолжительность: 01:51:45
Перевод: Профессиональный (многоголосый, закадровый) R5 + Оригинал + Субтитры (Русские, английские)

Режиссер: Лариса Кондрацки
Сценарий: Лариса Кондрацки, Eilis Kirwan
Продюсер: Эми Кауфман, Кристина Пиовесан, Селин Рэттрэй
Оператор: Киран МакГиган
Композитор: Майкл Дэнна

В ролях: Рэйчел Вайз, Ванесса Редгрейв, Моника Беллуччи, Дэвид Стрэтэйрн, Николай Ли Каас, Паула Шрамм, Александру Поточан, Уильям Хоуп

Описание: Кэтрин Балковак — отважный коп из Небраски, которая получает задание направиться в Боснию, дабы выяснить причины секс-торговли рабынь в стране. В это время в этом государстве царит хаос после проведения военных действий. Расследование заводит главную героиню в самое сердце подпольной работорговли, на которую завязаны не только властные структуры Боснии, но и сотрудники Организации Объединенных наций. В попытке найти истину Кэтрин находит женщину, которая смогла избежать участи секс-рабыни. Теперь только они могут пролить правду на структуру ООН и бесчинства, творившиеся в Боснии.

Раздача: Изображение

kinopoisk.ru: 6.694 (760)

Доп. информация
Премьера (мир): 13 сентября 2010
Рейтинг R — Restricted. Подростки до 17 лет допускаются на фильм только в сопровождении одного из родителей
Изображение
Ограничение — до 17 лет требуется сопровождение родителя или взрослого опекуна (возраст может меняться в некоторых регионах). Данный рейтинг показывает, что оценочная комиссия заключила, что некоторый материал оценённого фильма предназначается для взрослых. Родители должны больше узнать о фильме прежде, чем взять на его просмотр детей. Рейтинг R также может быть назначен из-за используемого в фильме языка, темы, насилия, секса или изображения употребления наркотиков.
Свернуть
Свернуть
MediaInfo
Формат : Matroska
Версия формата : Version 2
Размер файла : 4,67 Гбайт
Продолжительность : 1 ч. 51 м.
Общий поток : 5978 Кбит/сек
Дата кодирования : UTC 2012-03-29 14:27:45
Программа кодирования : mkvmerge v5.2.0 ('I can't explain') built on Dec 18 2011 18:12:03
Библиотека кодирования : libebml v1.2.3 + libmatroska v1.3.0

Видео
Идентификатор : 1
Формат : AVC
Формат/Информация : Advanced Video Codec
Профиль формата : High@L4.1
Параметр CABAC формата : Да
Параметр ReFrames формата : 9 кадров
Идентификатор кодека : V_MPEG4/ISO/AVC
Продолжительность : 1 ч. 51 м.
Битрейт : 4952 Кбит/сек
Ширина : 1280 пикселей
Высота : 720 пикселей
Соотношение сторон : 16:9
Частота кадров : 23,976 кадра/сек
Цветовое пространство : YUV
Субдискретизация насыщенности : 4:2:0
Битовая глубина : 8 бит
Тип развёртки : Прогрессивная
Бит/(Пиксели*Кадры) : 0.224
Размер потока : 3,77 Гбайт (81%)
Заголовок : Stukachka.2010.P.BDRip.720p.ELEKTRI4KA -by sstonecold-
Библиотека кодирования : x264 core 116 r2057 0ba8a9c
Настройки программы : cabac=1 / ref=9 / deblock=1:-2:-2 / analyse=0x3:0x113 / me=tesa / subme=11 / psy=1 / psy_rd=1.05:0.05 / mixed_ref=1 / me_range=32 / chroma_me=1 / trellis=2 / 8x8dct=1 / cqm=0 / deadzone=21,11 / fast_pskip=0 / chroma_qp_offset=-3 / threads=12 / sliced_threads=0 / nr=0 / decimate=1 / interlaced=0 / bluray_compat=0 / constrained_intra=0 / bframes=6 / b_pyramid=2 / b_adapt=2 / b_bias=0 / direct=3 / weightb=0 / open_gop=0 / weightp=2 / keyint=250 / keyint_min=23 / scenecut=40 / intra_refresh=0 / rc_lookahead=120 / rc=2pass / mbtree=1 / bitrate=4952 / ratetol=1.0 / qcomp=0.60 / qpmin=0 / qpmax=69 / qpstep=4 / cplxblur=20.0 / qblur=0.5 / vbv_maxrate=45000 / vbv_bufsize=40000 / nal_hrd=none / ip_ratio=1.40 / aq=1:1.00
Язык : English
Default : Да
Forced : Да

Аудио #1
Идентификатор : 2
Формат : AC-3
Формат/Информация : Audio Coding 3
Расширение режима : CM (complete main)
Параметр Endianness формата : Big
Идентификатор кодека : A_AC3
Продолжительность : 1 ч. 51 м.
Вид битрейта : Постоянный
Битрейт : 384 Кбит/сек
Каналы : 6 каналов
Расположение каналов : Front: L C R, Side: L R, LFE
Частота : 48,0 КГц
Битовая глубина : 16 бит
Метод сжатия : С потерями
Размер потока : 307 Мбайт (6%)
Язык : Russian
Default : Да
Forced : Нет

Аудио #2
Идентификатор : 3
Формат : AC-3
Формат/Информация : Audio Coding 3
Расширение режима : CM (complete main)
Параметр Endianness формата : Big
Идентификатор кодека : A_AC3
Продолжительность : 1 ч. 51 м.
Вид битрейта : Постоянный
Битрейт : 640 Кбит/сек
Каналы : 6 каналов
Расположение каналов : Front: L C R, Side: L R, LFE
Частота : 48,0 КГц
Битовая глубина : 16 бит
Метод сжатия : С потерями
Размер потока : 512 Мбайт (11%)
Язык : English
Default : Нет
Forced : Нет

Текст #1
Идентификатор : 4
Формат : UTF-8
Идентификатор кодека : S_TEXT/UTF8
Идентификатор кодека/Информация : UTF-8 Plain Text
Язык : Russian
Default : Нет
Forced : Нет

Текст #2
Идентификатор : 5
Формат : UTF-8
Идентификатор кодека : S_TEXT/UTF8
Идентификатор кодека/Информация : UTF-8 Plain Text
Язык : English
Default : Нет
Forced : Нет

Меню
00:00:00.000 : en:Chapter 01
00:10:25.458 : en:Chapter 02
00:20:33.607 : en:Chapter 03
00:29:03.783 : en:Chapter 04
00:39:27.990 : en:Chapter 05
00:49:07.235 : en:Chapter 06
00:59:32.485 : en:Chapter 07
01:08:53.712 : en:Chapter 08
01:18:40.799 : en:Chapter 09
01:28:03.152 : en:Chapter 10
01:38:32.239 : en:Chapter 11
01:47:17.180 : en:Chapter 12
Свернуть

Качество: BDRip 720p
Формат: MKV
Видео: MPEG-4 AVC, 4952 Кбит/с, 1280x720
Аудио #1: AC3, 6 ch, 384 Кбит/c (RUS)
Аудио #2: AC3, 6 ch, 640 Кбит/c (ENG)

Скриншоты

Изображение

Изображение

Изображение

Свернуть


Последний раз редактировалось Auto-dzr 2012-05-10 07:47, всего редактировалось 2 раз(а).
Не в сети
Профиль  
 Добавлено: 2012-05-10 07:28 (спустя 2 минуты)
Аватара пользователя
Стаж: 8 лет 3 месяца
Возраст: 43
Сообщений: 3290
Спасибок: 21012
Лайков: 3
ждем медиаинфо :)
_________________
Изображение
Не в сети
Профиль  
 Добавлено: 2012-05-10 07:42 (спустя 13 минут)
Аватара пользователя
Стаж: 8 лет 6 месяцев
Возраст: 28
Сообщений: 194
Спасибок: 515
Лайков: 2
выложил :ya_hoo_oo:
Не в сети
Профиль  
Начать новую темуОтветить на тему  [ Сообщений: 3 ] 
Вы не можете начинать темы
Вы не можете отвечать на сообщения
Вы не можете редактировать свои сообщения
Вы не можете удалять свои сообщения