Правила форума

  • В этом разделе создание новых тем Запрещено.
  • Для создания новых тем пользуйтесь Корневым разделом DVD и HD фильмы.
Начать новую темуОтветить на тему  [ 1 сообщение ] 
Торрент файл
Размер: 6.81 GB • Зарегистрирован: 5 лет 10 месяцев • Статус: Проверено
Скачан: 100 раз • Желающих скачать: 0 • Поблагодарили: 7 раз
 Раздают: 0  |  0 KB/s  ]   Качают: 0  |  0 KB/s  ] 
 Полного источника не было 2 месяца 19 дней 
Сообщения
 Добавлено: 2011-02-05 19:15
Модератор релиз-группы
Аватара пользователя
Стаж: 9 лет 1 месяц
Возраст: 97
Сообщений: 11660
Спасибок: 6534
Лайков: 269
Ствол / Gun

Изображение


Год выпуска: 2010
Страна: США
Жанр: боевик, триллер
Продолжительность: 01:21:58
Перевод: Профессиональный (многоголосый закадровый) [лицензия]
Оригинальная звуковая дорожка
Субтитры: Русские

Режиссёр: Джесси Терреро / Jessy Terrero
В ролях: Кертис «50 Cent» Джексон, Вэл Килмер, Малик Барнхардт, Пол Кэлдерон, Криста Кэмпбелл, Дэнни Трэхо, Элтон Клинтон, Джилл Дуган, Марк Фамиглетти, Гари Дарнелл Джексон мл., Хассан Джонсон
Описание: Пистолет — это просто холодная сталь, собранная в механизм. У него нет ни друзей, ни врагов. Ему незнакомы чувства ненависти, справедливости и власти. Дай пистолет в руки человека, и он может стать «добром» или «злом». Может отнять жизнь, а может ее спасти. Все зависит от того, кто держит палец на курке.

Это история двух друзей, которых судьба развела по разные стороны закона. Однажды они оказываются перед непростым выбором: пустить в ход оружие ради собственного спасения или сохранить верность принципам…


Изображение
Качество: BDRip, 1080p
Формат: MKV
Видео кодек: H264 (AVC)
Аудио кодек: AC3 (Dolby Digital)
Видео: MPEG-4 AVC, 1920х1080, 10.7 Mbps, 23.976 fps
Аудио #1: 48 kHz, AC3, 3/2 (L,C,R,l,r) + LFE ch, ~448.00 kbps avg |Russian [Профессиональный (многоголосый закадровый) [лицензия]]
Аудио #2: 48 kHz, DTS, 3/2 (L,C,R,l,r) + LFE ch, ~755.00 kbps avg |English [Оригинальная звуковая дорожка]
Субтитры: Русские
Скриншоты
Изображение

Изображение

Изображение

Изображение
Свернуть

Mi
General
Unique ID : 250814752283095689226259774790245005611 (0xBCB12A087612FD1E8B2862FCC80FB92B)
Format : Matroska
File size : 6.81 GiB
Duration : 1h 21mn
Overall bit rate : 11.9 Mbps
Encoded date : UTC 2011-01-25 14:54:10
Writing application : mkvmerge v4.0.0 ('The Stars were mine') сборка от Jun 11 2010 23:24:27
Writing library : libebml v1.0.0 + libmatroska v1.0.0

Video
ID : 1
Format : AVC
Format/Info : Advanced Video Codec
Format profile : High@L4.1
Format settings, CABAC : Yes
Format settings, ReFrames : 4 frames
Codec ID : V_MPEG4/ISO/AVC
Duration : 1h 21mn
Bit rate : 10.7 Mbps
Width : 1 920 pixels
Height : 1 080 pixels
Display aspect ratio : 16:9
Frame rate : 23.976 fps
Color space : YUV
Chroma subsampling : 4:2:0
Bit depth : 8 bits
Scan type : Progressive
Bits/(Pixel*Frame) : 0.215
Stream size : 5.99 GiB (88%)
Writing library : x264 core 112 r1834 a51816a
Encoding settings : cabac=1 / ref=4 / deblock=1:0:0 / analyse=0x3:0x133 / me=umh / subme=8 / psy=1 / psy_rd=1.00:0.00 / mixed_ref=1 / me_range=16 / chroma_me=1 / trellis=1 / 8x8dct=1 / cqm=0 / deadzone=21,11 / fast_pskip=0 / chroma_qp_offset=-2 / threads=6 / sliced_threads=0 / nr=0 / decimate=1 / interlaced=0 / constrained_intra=0 / bframes=3 / b_pyramid=2 / b_adapt=1 / b_bias=0 / direct=1 / weightb=1 / open_gop=0 / weightp=2 / keyint=240 / keyint_min=25 / scenecut=40 / intra_refresh=0 / rc_lookahead=40 / rc=2pass / mbtree=1 / bitrate=10683 / ratetol=1.0 / qcomp=0.60 / qpmin=0 / qpmax=51 / qpstep=4 / cplxblur=20.0 / qblur=0.5 / ip_ratio=1.40 / aq=1:1.00
Language : English

Audio #1
ID : 2
Format : AC-3
Format/Info : Audio Coding 3
Mode extension : CM (complete main)
Codec ID : A_AC3
Duration : 1h 21mn
Bit rate mode : Constant
Bit rate : 448 Kbps
Channel(s) : 6 channels
Channel positions : Front: L C R, Side: L R, LFE
Sampling rate : 48.0 KHz
Bit depth : 16 bits
Compression mode : Lossy
Stream size : 263 MiB (4%)
Language : Russian

Audio #2
ID : 3
Format : DTS
Format/Info : Digital Theater Systems
Codec ID : A_DTS
Duration : 1h 21mn
Bit rate mode : Constant
Bit rate : 755 Kbps
Channel(s) : 6 channels
Channel positions : Front: L C R, Side: L R, LFE
Sampling rate : 48.0 KHz
Bit depth : 24 bits
Compression mode : Lossy
Stream size : 442 MiB (6%)
Language : English

Text
ID : 4
Format : UTF-8
Codec ID : S_TEXT/UTF8
Codec ID/Info : UTF-8 Plain Text

Свернуть
_________________
Изображение
Не в сети
Профиль  
Начать новую темуОтветить на тему  [ 1 сообщение ] 
Вы не можете начинать темы
Вы не можете отвечать на сообщения
Вы не можете редактировать свои сообщения
Вы не можете удалять свои сообщения