Правила форума

  • В этом разделе создание новых тем Запрещено.
  • Для создания новых тем пользуйтесь Корневым разделом DVD и HD фильмы.
Начать новую темуОтветить на тему  [ 1 сообщение ] 
Торрент файл
Размер: 4.37 GB • Зарегистрирован: 4 года 1 месяц • Статус: Проверено
Скачан: 45 раз • Желающих скачать: 0 • Поблагодарили: 16 раз
 Раздают: 0  |  0 KB/s  ]   Качают: 0  |  0 KB/s  ] 
 Полного источника не было 1 год 6 месяцев 
Сообщения
 Добавлено: 2012-10-23 12:02
Аватара пользователя
Стаж: 7 лет 4 месяца
Возраст: 21
Сообщений: 419
Спасибок: 12709
Лайков: 18
Изображение
Судный день / The Day

«Сражайся. Или умри»

Год выпуска: 2011
Страна: США
Жанр: Фантастика, триллер, драма
Продолжительность: 01:30:00
Перевод: Профессиональный (многоголосый, закадровый) [Лицензия]

Режиссер: Дуглас Арниокоски
Сценарий: Люк Пассмор
Продюсер: Гай Данелла, Дуглас Арниокоски, Роберт Мензес
Оператор: Борис Мойсовски
Композитор: Rock Mafia

В ролях: Шон Эшмор, Эшли Белл, Кори Хардрикт, Доминик Монахэн, Шаннин Соссамон, Майкл Эклунд, Брайана Барнс, Кэссиди Верро, София Эванюк, Роберт Болдуин

Описание: После вселенской катастрофы Земля превратилась в выжженную пустыню. По бескрайним дорогам, кишащим бандитами, враждующими между собой за еду, странствуют пятеро. Надеясь найти покой, они останавливаются в доме, который легко превращается в ловушку. Сможет ли кто-то выйти живым?

Раздача: Изображение


Изображение

Сборы в США: $20 984
Сборы в России: $3 702
Мировая премьера: 26 января 2012
Премьера РФ: 20 сентября 2012, «Премиум Фильм»
Релиз на DVD: 18 октября 2012, «CP Дистрибуция»
Релиз на Blu-Ray: 18 октября 2012, «CP Дистрибуция»

Качество: BDRip [1080p]
Формат: Matroska
Видео: 1920x1072, 6563 Кбит/сек, 24,000 кадр/сек, AVC, x264, 16:9, 0.133 Бит/[Пиксели*Кадры], 2pass
Аудио: AC-3, 384 Кбит/сек, 6 канала(ов), 48,0 КГц


Изображение

MediaInfo:
Общее
Уникальный идентификатор : 197918764646199608390150250254519307237 (0x94E5C47D6CA5E8E68ED1A21DCD610BE5)
Полное имя : D:TorrentThe.Day.2011.x264.BDRip.1080p.MVO.mkv
Формат : Matroska
Версия формата : Version 2
Размер файла : 4,37 Гбайт
Продолжительность : 1 ч. 30 м.
Общий поток : 6947 Кбит/сек
Дата кодирования : UTC 2012-10-23 02:58:16
Программа кодирования : mkvmerge v5.5.0 ('Healer') built on Apr 6 2012 21:43:24
Библиотека кодирования : libebml v1.2.3 + libmatroska v1.3.0

Видео
Идентификатор : 1
Формат : AVC
Формат/Информация : Advanced Video Codec
Профиль формата : High@L4.0
Параметр CABAC формата : Да
Параметр ReFrames формата : 4 кадра
Идентификатор кодека : V_MPEG4/ISO/AVC
Продолжительность : 1 ч. 30 м.
Битрейт : 6563 Кбит/сек
Ширина : 1920 пикселей
Высота : 1072 пикселя
Соотношение сторон : 16:9
Соотношение сторон в оригинале : 16:9
Частота кадров : 24,000 кадра/сек
Цветовое пространство : YUV
Субдискретизация насыщенности : 4:2:0
Битовая глубина : 8 бит
Тип развёртки : Прогрессивная
Бит/(Пиксели*Кадры) : 0.133
Размер потока : 4,04 Гбайт (92%)
Заголовок : Судный день
Библиотека кодирования : x264 core 128 r2216 198a7ea
Настройки программы : cabac=1 / ref=4 / deblock=1:0:0 / analyse=0x3:0x133 / me=hex / subme=7 / psy=1 / psy_rd=1.00:0.00 / mixed_ref=1 / me_range=16 / chroma_me=1 / trellis=1 / 8x8dct=1 / cqm=0 / deadzone=21,11 / fast_pskip=1 / chroma_qp_offset=-2 / threads=12 / lookahead_threads=2 / sliced_threads=0 / nr=0 / decimate=1 / interlaced=0 / bluray_compat=0 / constrained_intra=0 / bframes=3 / b_pyramid=2 / b_adapt=1 / b_bias=0 / direct=1 / weightb=1 / open_gop=0 / weightp=2 / keyint=240 / keyint_min=24 / scenecut=40 / intra_refresh=0 / rc_lookahead=40 / rc=2pass / mbtree=1 / bitrate=6563 / ratetol=1.0 / qcomp=0.60 / qpmin=10 / qpmax=51 / qpstep=4 / cplxblur=20.0 / qblur=0.5 / ip_ratio=1.40 / aq=1:1.00
Язык : English
Default : Да
Forced : Нет

Аудио
Идентификатор : 2
Формат : AC-3
Формат/Информация : Audio Coding 3
Расширение режима : CM (complete main)
Идентификатор кодека : A_AC3
Продолжительность : 1 ч. 30 м.
Вид битрейта : Постоянный
Битрейт : 384 Кбит/сек
Каналы : 6 каналов
Расположение каналов : Front: L C R, Side: L R, LFE
Частота : 48,0 КГц
Битовая глубина : 16 бит
Метод сжатия : С потерями
Размер потока : 247 Мбайт (6%)
Заголовок : закадровый
Язык : Russian
Default : Да
Forced : Нет
Свернуть


Скриншоты:


Изображение


Изображение


Изображение


Свернуть
Не в сети
Профиль  
Начать новую темуОтветить на тему  [ 1 сообщение ] 
Вы не можете начинать темы
Вы не можете отвечать на сообщения
Вы не можете редактировать свои сообщения
Вы не можете удалять свои сообщения