Правила форума

  • В этом разделе создание новых тем Запрещено.
  • Для создания новых тем пользуйтесь Корневым разделом DVD и HD фильмы.
Начать новую темуОтветить на тему  [ Сообщений: 10 ] 
Торрент файл
Размер: 7.31 GB • Зарегистрирован: 3 года 10 месяцев • Статус: Проверено
Скачан: 108 раз • Желающих скачать: 0 • Поблагодарили: 35 раз
 Раздают: 0  |  0 KB/s  ]   Качают: 0  |  0 KB/s  ] 
 Полного источника не было 1 год 6 месяцев 
Сообщения
 Добавлено: 2013-01-25 17:51
Модератор
Аватара пользователя
Стаж: 6 лет 10 месяцев
Возраст: 33
Сообщений: 5908
Спасибок: 61259
Лайков: 3540
Изображение

Судья Дредд 3D
Dredd 3D


Год выпуска: 2012
Страна: ЮАР, Великобритания
Слоган: «Я – закон»
Жанр: фантастика, боевик, триллер, криминал
Продолжительность: 01:35:51
Перевод: Дубляж R5
Режиссер: Пит Трэвис
Сценарий: Алекс Гарленд, Джон Вагнер, Карлос Эскуэрра
Продюсер: Алекс Гарленд, Эндрю МакДональд, Аллон Рич, Майкл Элсон, Ади Шанкар
Оператор: Энтони Дод Мэнтл
Композитор: Пол Леонард-Морган
В ролях: Карл Урбан, Оливия Тирлби, Лина Хиди, Вуд Харрис, Рэйчел Вуд, Андил Мнгади, Портес Ксандо Стинкамп, Джейсон Коуп, Эмма Бреши, Рэки Айола
Бюджет: $50 000 000
Сборы в США: $13 414 714
Сборы в России: $4 038 623
Сборы в мире: $30 931 946
Мировая премьера: 11 июля 2012
Релиз на DVD: 21 января 2013, «Новый Диск»
Релиз на Blu-ray: 21 января 2013, «Новый Диск»
Описание: Будущее не столь красочно и великолепно, каким его представляют современные люди. Через несколько столетий человечество окажется на грани самоуничтожения, захлёбываясь в кровавых преступлениях, смертельных грехах и беспорядочных убийствах. Старую систему правосудия будет невозможно использовать - анархия, всеобщие беспорядки вынуждают ещё сохранившуюся власть, тем не менее, потерявшую всякий авторитет и легитимность, пойти на отчаянные крайние меры и ввести институт Судей - универсальных полицейских, правоприменителей, а по совместительству - и прокуроров, которые упростили бы весь процесс задержания, следствия и судебных тяжб, совмещая в одном лице все должности блюстителей и защитников правопорядка.
Негодяи, подонки, вконец обнаглевшие и распоясавшиеся преступники и бандитские группировки всё равно не желают сдавать свои упрочившие позиции, опасаясь лишь одного - встречи с легендарным Судьёй Дреддом, пересажавшим или расстрелявшим не одну сотню насильников, террористов и жадных до человеческих страданий маньяков. В то время, как беспорядки и бесчинства бушуют на улицах города, Дредд спешит вернуть порядок, Закон и тишину, которым, кажется, уже никогда не обрести свою былую полноту, мощь и силу.


Изображение User Rating: 7.372 (8159)
Изображение User Rating: 7.50 (24 345)
MPAA: R - Лицам до 17 лет обязательно присутствие взрослого
Раздача группы: Изображение
Качество: BDRip 720p
Формат: MKV
Видео: MPEG-4 AVC, 7895 Кбит/с, 1280x534
Аудио: Русский, английский (DTS, 6 ch, 1536 Кбит/с)
mediainfo
General
Unique ID : 182394197348173371508958606430704013582 (0x8937D83A08C3DD8A9E0221227ED4910E)
Complete name : Dredd.2012.D.BDRip.720p.IRONCLUB.mkv
Format : Matroska
Format version : Version 2
File size : 7.31 GiB
Duration : 1h 35mn
Overall bit rate : 10.9 Mbps
Movie name : IRONCLUB
Encoded date : UTC 2013-01-25 11:55:58
Writing application : mkvmerge v5.2.0 ('I can't explain') built on Dec 18 2011 18:12:03
Writing library : libebml v1.2.3 + libmatroska v1.3.0

Video
ID : 1
Format : AVC
Format/Info : Advanced Video Codec
Format profile : High@L4.1
Format settings, CABAC : Yes
Format settings, ReFrames : 12 frames
Codec ID : V_MPEG4/ISO/AVC
Duration : 1h 35mn
Bit rate : 7 895 Kbps
Width : 1 280 pixels
Height : 534 pixels
Display aspect ratio : 2.40:1
Frame rate : 23.976 fps
Color space : YUV
Chroma subsampling : 4:2:0
Bit depth : 8 bits
Scan type : Progressive
Bits/(Pixel*Frame) : 0.482
Stream size : 5.14 GiB (70%)
Title : Dredd.2012.720p.BluRay.DTS.x264-HiDt
Writing library : x264 core 129 r2230 1cffe9f
Encoding settings : cabac=1 / ref=12 / deblock=1:-3:-3 / analyse=0x3:0x113 / me=tesa / subme=11 / psy=1 / psy_rd=0.97:0.00 / mixed_ref=1 / me_range=32 / chroma_me=1 / trellis=2 / 8x8dct=1 / cqm=0 / deadzone=21,11 / fast_pskip=0 / chroma_qp_offset=-2 / threads=12 / lookahead_threads=2 / sliced_threads=0 / nr=0 / decimate=1 / interlaced=0 / bluray_compat=0 / constrained_intra=0 / bframes=6 / b_pyramid=2 / b_adapt=2 / b_bias=0 / direct=3 / weightb=1 / open_gop=0 / weightp=2 / keyint=240 / keyint_min=23 / scenecut=40 / intra_refresh=0 / rc_lookahead=80 / rc=2pass / mbtree=1 / bitrate=7895 / ratetol=1.0 / qcomp=0.70 / qpmin=0 / qpmax=69 / qpstep=4 / cplxblur=20.0 / qblur=0.5 / ip_ratio=1.40 / aq=2:0.80
Language : English
Default : Yes
Forced : Yes

Audio #1
ID : 2
Format : DTS
Format/Info : Digital Theater Systems
Codec ID : A_DTS
Duration : 1h 35mn
Bit rate mode : Constant
Bit rate : 1 510 Kbps
Channel(s) : 6 channels
Channel positions : Front: L C R, Side: L R, LFE
Sampling rate : 48.0 KHz
Bit depth : 24 bits
Compression mode : Lossy
Stream size : 1.01 GiB (14%)
Title : DTS 5.1 @ 1536 kbps - Dub, BD RUS
Language : Russian
Default : Yes
Forced : Yes

Audio #2
ID : 3
Format : DTS
Format/Info : Digital Theater Systems
Codec ID : A_DTS
Duration : 1h 35mn
Bit rate mode : Constant
Bit rate : 1 510 Kbps
Channel(s) : 6 channels
Channel positions : Front: L C R, Side: L R, LFE
Sampling rate : 48.0 KHz
Bit depth : 24 bits
Compression mode : Lossy
Stream size : 1.01 GiB (14%)
Title : DTS 5.1 @ 1536 kbps
Language : English
Default : No
Forced : No

Text #1
ID : 4
Format : UTF-8
Codec ID : S_TEXT/UTF8
Codec ID/Info : UTF-8 Plain Text
Title : BD RUS
Language : Russian
Default : No
Forced : No

Text #2
ID : 5
Format : UTF-8
Codec ID : S_TEXT/UTF8
Codec ID/Info : UTF-8 Plain Text
Title : Groby
Language : Russian
Default : No
Forced : No

Text #3
ID : 6
Format : UTF-8
Codec ID : S_TEXT/UTF8
Codec ID/Info : UTF-8 Plain Text
Language : English
Default : No
Forced : No

Text #4
ID : 7
Format : UTF-8
Codec ID : S_TEXT/UTF8
Codec ID/Info : UTF-8 Plain Text
Title : SDH
Language : English
Default : No
Forced : No

Menu
00:00:00.000 : en:00:00:00.000
00:05:43.552 : en:00:05:43.552
00:08:14.661 : en:00:08:14.661
00:14:17.356 : en:00:14:17.356
00:19:42.681 : en:00:19:42.681
00:24:09.323 : en:00:24:09.323
00:27:21.056 : en:00:27:21.056
00:36:01.284 : en:00:36:01.284
00:39:49.012 : en:00:39:49.012
00:48:26.946 : en:00:48:26.946
00:54:39.651 : en:00:54:39.651
01:00:57.237 : en:01:00:57.237
01:06:30.570 : en:01:06:30.570
01:12:01.651 : en:01:12:01.651
01:20:10.264 : en:01:20:10.264
01:27:00.382 : en:01:27:00.382

Свернуть
"Знаете ли Вы, что..."
  • Судья Дредд создан писателем Джоном Вагнером и художником Карлосом Эскуэрра.
Свернуть
Скриншоты

Изображение
Изображение
Изображение
Свернуть
_________________
ИзображениеИзображение Изображение
Изображение
 tany1984 и di-ys1 нравится это.
Не в сети
Профиль  
 Добавлено: 2013-01-25 18:34 (спустя 42 минуты)
Модератор релиз-группы
Аватара пользователя
Стаж: 6 лет 9 месяцев
Возраст: 25
Сообщений: 1230
Спасибок: 8209
Лайков: 10
rotametr
как со звуком дела?
_________________
Изображение 20 Mbps день; 40 Mbps ночь.
Изображение 20 Mbps день; 40 Mbps ночь.
Не в сети
Профиль  
 Добавлено: 2013-01-25 18:42 (спустя 8 минут)
Модератор
Аватара пользователя
Стаж: 6 лет 10 месяцев
Возраст: 33
Сообщений: 5908
Спасибок: 61259
Лайков: 3540

sukre:

rotametr
как со звуком дела?
С русского BD
_________________
ИзображениеИзображение Изображение
Изображение
Не в сети
Профиль  
 Добавлено: 2013-01-25 18:43 (спустя 1 минута)
Аватара пользователя
Стаж: 7 лет 7 месяцев
Сообщений: 77
Спасибок: 112
Лайков: 1
:ne_znayu: где 3D-то?
Не в сети
Профиль  
 Добавлено: 2013-01-25 18:58 (спустя 14 минут)
Модератор релиз-группы
Аватара пользователя
Стаж: 6 лет 9 месяцев
Возраст: 25
Сообщений: 1230
Спасибок: 8209
Лайков: 10
rotametr
т.е. ни каких хрипов и прочих сторонних звуков? :)
_________________
Изображение 20 Mbps день; 40 Mbps ночь.
Изображение 20 Mbps день; 40 Mbps ночь.
Не в сети
Профиль  
 Добавлено: 2013-01-25 19:01 (спустя 3 минуты)
Модератор
Аватара пользователя
Стаж: 6 лет 10 месяцев
Возраст: 33
Сообщений: 5908
Спасибок: 61259
Лайков: 3540

ilushka777:

:ne_znayu: где 3D-то?
В тех. данных ничего про 3D не сказано.
_________________
ИзображениеИзображение Изображение
Изображение
Не в сети
Профиль  
 Добавлено: 2013-01-25 19:01 (спустя 37 секунд)
Модератор
Аватара пользователя
Стаж: 6 лет 10 месяцев
Возраст: 33
Сообщений: 5908
Спасибок: 61259
Лайков: 3540

sukre:

rotametr
т.е. ни каких хрипов и прочих сторонних звуков? :)
Не проверял, но первоисточник утверждает что все четко
_________________
ИзображениеИзображение Изображение
Изображение
Не в сети
Профиль  
 Добавлено: 2013-01-25 19:12 (спустя 10 минут)
Модератор релиз-группы
Аватара пользователя
Стаж: 6 лет 9 месяцев
Возраст: 25
Сообщений: 1230
Спасибок: 8209
Лайков: 10

rotametr:

sukre:

rotametr
т.е. ни каких хрипов и прочих сторонних звуков? :)
Не проверял, но первоисточник утверждает что все четко
счас проверю, спасибку ткнул
_________________
Изображение 20 Mbps день; 40 Mbps ночь.
Изображение 20 Mbps день; 40 Mbps ночь.
Не в сети
Профиль  
 Добавлено: 2013-01-25 20:07 (спустя 55 минут)
Top-releaser
Аватара пользователя
Стаж: 8 лет 9 месяцев
Сообщений: 211
Спасибок: 3857
Лайков: 1
спасибо большое :)
_________________
Изображение
Не в сети
Профиль  
 Добавлено: 2013-01-25 23:19 (спустя 3 часа)
DVD Release Group
Аватара пользователя
Стаж: 7 лет 9 месяцев
Сообщений: 364
Спасибок: 3086
Лайков: 10
Все четко, но где звук на заставке LIONSGATE перед фильмом, вот в чем вопрос (R5 всё-таки)? :du_ma_et:
Это, типа, чисто технический интерес, т.к. звук хочу перекодировать и использовать в своей дивидишке.
Не в сети
Профиль  
Начать новую темуОтветить на тему  [ Сообщений: 10 ] 
Вы не можете начинать темы
Вы не можете отвечать на сообщения
Вы не можете редактировать свои сообщения
Вы не можете удалять свои сообщения