Правила форума

  • В этом разделе создание новых тем Запрещено.
  • Для создания новых тем пользуйтесь Корневым разделом DVD и HD фильмы.
Начать новую темуОтветить на тему  [ Сообщений: 4 ] 
Торрент файл
Размер: 8.29 GB • Зарегистрирован: 4 года 10 месяцев • Статус: Проверено
Скачан: 93 раза • Желающих скачать: 0 • Поблагодарили: 21 раз
 Раздают: 0  |  0 KB/s  ]   Качают: 0  |  0 KB/s  ] 
 Полного источника не было 1 день 13 часов 
Сообщения
 Добавлено: 2012-02-02 12:59
Модератор релиз-группы
Аватара пользователя
Стаж: 9 лет 1 месяц
Возраст: 97
Сообщений: 11659
Спасибок: 6531
Лайков: 269
Судья Дредд / Judge Dredd

Изображение


Год выпуска: 1995
Страна: США
Жанр: Фантастика, боевик
Продолжительность: 01:36:07
Перевод: Многоголосый закадровый, Twister
Многоголосый закадровый, Киномания
Многоголосый закадровый, Екатеринбург Арт Home Video

Режиссёр: Дэнни Кэннон / Danny Cannon

В ролях: Сильвестр Сталлоне, Арманд Ассанте, Роб Шнайдер, Юрген Прохнов, Макс фон Сюдов

Описание: 2115 год. Глобальная экологическая катастрофа, вызвавшая многочисленные землетрясения, пожары и наводнения, превратила планету в ядовитую, выжженную пустыню. Остатки цивилизации - несколько огромных мегаполисов, на улицах которых воцаряются насилие и хаос. Система правосудия не могла справиться с анархией, и были созданы элитные подразделения, которые сами задерживали, судили, выносили приговор и приводили его в исполнение. Их называли Судьями. Одним из таких судей был крутой и бесстрастный судья Дредд, очищающий улицы Мега-Сити...
Изображение
Качество: BDRip
Контейнер: MKV
Видео: AVC, 1920х820, 23.976 fps, 11000 Kbps Kbps
Аудио №1: Русский DTS, 5.1, 48 kHz, ~768 kbps | Многоголосый закадровый, Twister
Аудио №2: Русский AC3, 5.1, 48 kHz, ~448 kbps | Многоголосый закадровый, Киномания
Аудио №3: Русский AC3, 2.0, 48 kHz, ~192 kbps | Многоголосый закадровый, Екатеринбург Арт Home Video
скриншоты
Изображение

Изображение

Изображение

Изображение
Свернуть
Mi
Format : Matroska
Format version : Version 2
File size : 8.29 GiB
Duration : 1h 36mn
Overall bit rate : 12.4 Mbps
Encoded date : UTC 2012-02-02 09:51:17
Writing application : mkvmerge v5.2.1 ('A Far Off Place') built on Jan 2 2012 23:21:10
Writing library : libebml v1.2.3 + libmatroska v1.3.0

Video
ID : 1
Format : AVC
Format/Info : Advanced Video Codec
Format profile : High@L4.1
Format settings, CABAC : Yes
Format settings, ReFrames : 5 frames
Muxing mode : Header stripping
Codec ID : V_MPEG4/ISO/AVC
Duration : 1h 36mn
Bit rate : 11.0 Mbps
Width : 1 920 pixels
Height : 820 pixels
Display aspect ratio : 2.35:1
Frame rate : 23.976 fps
Color space : YUV
Chroma subsampling : 4:2:0
Bit depth : 8 bits
Scan type : Progressive
Bits/(Pixel*Frame) : 0.291
Stream size : 7.19 GiB (87%)
Writing library : x264 core 104 r1713 c276662
Encoding settings : cabac=1 / ref=5 / deblock=1:-3:-3 / analyse=0x3:0x113 / me=umh / subme=10 / psy=1 / psy_rd=1.05:0.10 / mixed_ref=1 / me_range=48 / chroma_me=1 / trellis=2 / 8x8dct=1 / cqm=0 / deadzone=21,11 / fast_pskip=0 / chroma_qp_offset=-2 / threads=12 / sliced_threads=0 / nr=0 / decimate=1 / interlaced=0 / constrained_intra=0 / bframes=6 / b_pyramid=2 / b_adapt=2 / b_bias=0 / direct=3 / weightb=1 / open_gop=0 / weightp=2 / keyint=250 / keyint_min=23 / scenecut=40 / intra_refresh=0 / rc_lookahead=60 / rc=2pass / mbtree=1 / bitrate=11000 / ratetol=1.0 / qcomp=0.70 / qpmin=10 / qpmax=51 / qpstep=4 / cplxblur=20.0 / qblur=0.5 / vbv_maxrate=40000 / vbv_bufsize=30000 / ip_ratio=1.40 / aq=1:0.90 / nal_hrd=none
Language : English
Default : Yes
Forced : No

Audio #1
ID : 2
Format : DTS
Format/Info : Digital Theater Systems
Muxing mode : Header stripping
Codec ID : A_DTS
Duration : 1h 36mn
Bit rate mode : Constant
Bit rate : 755 Kbps
Channel(s) : 6 channels
Channel positions : Front: L C R, Side: L R, LFE
Sampling rate : 48.0 KHz
Bit depth : 24 bits
Compression mode : Lossy
Stream size : 519 MiB (6%)
Title : Многоголосый закадровый, Twister
Language : Russian
Default : Yes
Forced : No

Audio #2
ID : 3
Format : AC-3
Format/Info : Audio Coding 3
Format profile : Dolby Digital
Mode extension : CM (complete main)
Muxing mode : Header stripping
Codec ID : A_AC3
Duration : 1h 36mn
Bit rate mode : Constant
Bit rate : 192 Kbps
Channel(s) : 2 channels
Channel positions : Front: L R
Sampling rate : 48.0 KHz
Bit depth : 16 bits
Compression mode : Lossy
Stream size : 132 MiB (2%)
Title : Многоголосый закадровый, Екатеринбург Арт Home Video
Language : Russian
Default : No
Forced : No

Audio #3
ID : 4
Format : AC-3
Format/Info : Audio Coding 3
Mode extension : CM (complete main)
Muxing mode : Header stripping
Codec ID : A_AC3
Duration : 1h 36mn
Bit rate mode : Constant
Bit rate : 448 Kbps
Channel(s) : 6 channels
Channel positions : Front: L C R, Side: L R, LFE
Sampling rate : 48.0 KHz
Bit depth : 16 bits
Compression mode : Lossy
Stream size : 308 MiB (4%)
Title : Многоголосый закадровый, Киномания
Language : Russian
Default : No
Forced : No

Свернуть
_________________
Изображение
Не в сети
Профиль  
 Добавлено: 2012-02-02 16:01 (спустя 3 часа)
Кинокомментатор
Аватара пользователя
Стаж: 8 лет 7 месяцев
Возраст: 32
Сообщений: 5126
Спасибок: 194
Лайков: 35
Вот только вчера ночью сидел и думал, что было бы неплохо в таком качестве его пересмотреть.
Пасиба :)
_________________
Изображение
Изображение Кино-кафе или что посмотреть сегодня вечером. Советы кинокомментатора О_о ИзображениеИзображение
Не в сети
Профиль  
 Добавлено: 2012-02-02 19:42 (спустя 3 часа)
Стаж: 7 лет
Сообщений: 86
спасибо .......!
Не в сети
Профиль  
 Добавлено: 2012-11-08 16:52 (спустя 9 месяцев)
Стаж: 5 лет 5 месяцев
Сообщений: 7
Огромное человеческое СПАСИБО. Легендарный фильм :co_ol:
Не в сети
Профиль  
Начать новую темуОтветить на тему  [ Сообщений: 4 ] 
Вы не можете начинать темы
Вы не можете отвечать на сообщения
Вы не можете редактировать свои сообщения
Вы не можете удалять свои сообщения