Правила форума

  • В этом разделе создание новых тем Запрещено.
  • Для создания новых тем пользуйтесь Корневым разделом DVD и HD фильмы.
Начать новую темуОтветить на тему  [ Сообщений: 4 ] 
Торрент файл
Размер: 9.81 GB • Зарегистрирован: 1 год 10 месяцев • Статус: Проверено
Скачан: 587 раз • Желающих скачать: 0 • Поблагодарили: 128 раз
 Раздают: 2  |  0 KB/s  ]   Качают: 0  |  0 KB/s  ] 
Сообщения
 Добавлено: 2015-01-14 21:46
Модератор
Аватара пользователя
Стаж: 5 лет 8 месяцев
Сообщений: 6281
Спасибок: 17331
Лайков: 1633
Судья / The Judge

«Не судите, да не судимы будете»

Изображение


Год выпуска: 2014
Страна: США
Жанр: Драма
Продолжительность: 02:21:29
Перевод: Профессиональный (дубляж)
Режиссёр: Дэвид Добкин
В ролях: Роберт Дауни мл., Роберт Дювалл, Лейтон Мистер, Вера Фармига, Билли Боб Торнтон, Винсент Д’Онофрио, Дэкс Шепард, Сара Ланкастер, Дэвид Крамхолц, Эмма Трамбле
Описание: Успешный адвокат возвращается в родной город на похороны своей матери и узнаёт, что его страдающего болезнью Альцгеймера отца, городского судью, подозревают в её убийстве. Герой решает задержаться, чтобы выяснить правду, и постепенно лучше узнаёт родственников, с которыми давно вообще никак не общался.
Изображение
• Золотой глобус, 2015 год •
Номинации (1):
Лучшая мужская роль второго плана (Роберт Дювалл)

Качество: BDRip 1080p
Формат: MKV
Видео: MPEG-4 AVC, 9546 Кбит/с, 1920x800
Аудио: AC3, 6 ch, 384 Кбит/с
Скриншоты
ИзображениеИзображениеИзображение
Свернуть
MI
Общее
Уникальный идентификатор : 251021342624874862246026206280966054147 (0xBCD8F3B92A676CA782DB469066B5A103)
Полное имя : F:\Films\The.Judge.2014.1080p.BluRay..mkv
Формат : Matroska
Версия формата : Version 4 / Version 2
Размер файла : 9,81 Гбайт
Продолжительность : 2 ч. 21 м.
Общий поток : 9928 Кбит/сек
Дата кодирования : UTC 2015-01-13 22:39:31
Программа кодирования : mkvmerge v6.1.0 ('Old Devil') built on Mar 2 2013 14:32:37
Библиотека кодирования : libebml v1.3.0 + libmatroska v1.4.0

Видео
Идентификатор : 1
Формат : AVC
Формат/Информация : Advanced Video Codec
Профиль формата : High@L4.1
Параметр CABAC формата : Да
Параметр ReFrames формата : 5 кадров
Идентификатор кодека : V_MPEG4/ISO/AVC
Продолжительность : 2 ч. 21 м.
Битрейт : 9546 Кбит/сек
Ширина : 1920 пикселей
Высота : 800 пикселей
Соотношение сторон : 2,40:1
Режим частоты кадров : Постоянный
Частота кадров : 23,976 кадра/сек
Цветовое пространство : YUV
Субдискретизация насыщенности : 4:2:0
Битовая глубина : 8 бит
Тип развёртки : Прогрессивная
Бит/(Пиксели*Кадры) : 0.259
Размер потока : 9,24 Гбайт (94%)
Библиотека кодирования : x264 core 144 r2525 40bb568
Настройки программы : cabac=1 / ref=5 / deblock=1:0:0 / analyse=0x3:0x133 / me=umh / subme=7 / psy=1 / psy_rd=1.00:0.00 / mixed_ref=1 / me_range=16 / chroma_me=1 / trellis=1 / 8x8dct=1 / cqm=0 / deadzone=21,11 / fast_pskip=0 / chroma_qp_offset=-2 / threads=60 / lookahead_threads=6 / sliced_threads=0 / nr=0 / decimate=1 / interlaced=0 / bluray_compat=0 / constrained_intra=0 / bframes=3 / b_pyramid=2 / b_adapt=1 / b_bias=0 / direct=1 / weightb=1 / open_gop=0 / weightp=2 / keyint=250 / keyint_min=23 / scenecut=40 / intra_refresh=0 / rc_lookahead=40 / rc=2pass / mbtree=1 / bitrate=9546 / ratetol=1.0 / qcomp=0.60 / qpmin=0 / qpmax=69 / qpstep=4 / cplxblur=20.0 / qblur=0.5 / ip_ratio=1.40 / aq=1:1.00
Язык : English
Default : Да
Forced : Нет

Аудио
Идентификатор : 2
Формат : AC-3
Формат/Информация : Audio Coding 3
Расширение режима : CM (complete main)
Параметр Endianness формата : Big
Идентификатор кодека : A_AC3
Продолжительность : 2 ч. 21 м.
Вид битрейта : Постоянный
Битрейт : 384 Кбит/сек
Каналы : 6 каналов
Расположение каналов : Front: L C R, Side: L R, LFE
Частота : 48,0 КГц
Битовая глубина : 16 бит
Метод сжатия : С потерями
Размер потока : 389 Мбайт (4%)
Default : Да
Forced : Нет

Меню
00:00:00.000 : en:00:00:00.000
00:11:59.218 : en:00:11:59.218
00:20:47.121 : en:00:20:47.121
00:31:22.547 : en:00:31:22.547
00:41:06.381 : en:00:41:06.381
00:50:42.623 : en:00:50:42.623
00:59:44.498 : en:00:59:44.498
01:09:25.453 : en:01:09:25.453
01:20:00.754 : en:01:20:00.754
01:28:33.767 : en:01:28:33.767
01:40:18.971 : en:01:40:18.971
01:51:38.942 : en:01:51:38.942
02:01:30.325 : en:02:01:30.325
02:10:55.681 : en:02:10:55.681
02:14:45.077 : en:02:14:45.077
Свернуть
Интересно
Знаете ли вы что...:
• Этот фильм является первым релизом от «Team Downey» – продакшн-компании Роберта Дауни мл. и его жены Сьюзан Дауни.
• Нигде в Америке съемочной группе не удалось найти зал суда, который можно было бы занять на три недели для работы над фильмом, поэтому декорации пришлось строить на огромном пустом складе в городе Норвуд, штат Массачусетс, США.
• Януш Камински практически весь фильм снял на пленку, отказавшись от «цифры» в пользу классической картинки, полной света и теплых цветов.
• Джек Николсон и Томми Ли Джонс рассматривались на роль, которая в итоге досталась Роберту Дюваллу.
• Одной из основных претенденток на роль, которая досталась Вере Фармиге, была Элизабет Бэнкс.
Ошибки в фильме:
• В день похорон матери главного героя, когда семья собирается за столом в закусочной, один из братьев говорит, что они завтракали в этом месте каждую субботу в течение 35 лет. Позже, когда Хэнк вламывается в такую же закусочную, снаружи на здании можно заметить табличку «Established 1996» (Основано в 1996 году).
• В фильме на всех автомобилях из Индианы регистрационный номер расположен на переднем бампере. На самом деле в штате Индиана такое расположение номеров не используется.
• Когда Хэнк находится в закусочной, перед тем как отправиться на похороны своей матери, у него видна щетина над верхней губой, но спустя несколько минут на кладбище он уже чисто выбрит.
• В сцене, где мать Марка Блэкуэлла плюет на стекло автомобиля, когда камера показывает изнутри машины, плевок виден на стекле. Затем, когда камера показывает снаружи отъезжающий автомобиль, то стекло абсолютно чистое. А в следующем кадре из машины он снова появляется на стекле.
• Количество мороженого в вафельном рожке Лорен то увеличивается, то уменьшается при смене кадра.
• Судья говорит обвиняемому пойти в Индианаполис в начале августа, чтобы увидеть крупнейшего в мире быка. На самом деле на проходящей в этом городе ярмарке штата можно увидеть не быка, а самую крупную в мире свинью.
Свернуть
_________________
Изображение Изображение Изображение
 sashannov нравится это.
Не в сети
Профиль  
 Добавлено: 2015-01-14 23:05 (спустя 1 час 18 минут)
Кинокомментатор
Аватара пользователя
Стаж: 8 лет 1 месяц
Сообщений: 1325
Спасибок: 794
Лайков: 35
:bra_vo: :co_ol:
Не в сети
Профиль  
 Добавлено: 2015-01-25 09:34 (спустя 10 дней)
Аватара пользователя
Стаж: 9 лет 1 месяц
Возраст: 36
Сообщений: 195
Спасибок: 20
Лайков: 8
Хороший фильм, смотреть однозначно стоит.
Не в сети
Профиль  
 Добавлено: 2015-05-11 22:17 (спустя 3 месяца 17 дней)
Кинокомментатор
Аватара пользователя
Стаж: 9 лет 1 месяц
Сообщений: 1332
Лайков: 54
сильное и интересное кино!) жалко не про нашу систему правосудия((
8/10
_________________
Я ВКонтакте
Не в сети
Профиль  
Начать новую темуОтветить на тему  [ Сообщений: 4 ] 
Вы не можете начинать темы
Вы не можете отвечать на сообщения
Вы не можете редактировать свои сообщения
Вы не можете удалять свои сообщения