Правила форума

  • В этом разделе создание новых тем Запрещено.
  • Для создания новых тем пользуйтесь Корневым разделом DVD и HD фильмы.
Начать новую темуОтветить на тему  [ Сообщений: 10 ] 
Торрент файл
Размер: 9.78 GB • Зарегистрирован: 5 лет 5 месяцев • Статус: Проверено
Скачан: 465 раз • Желающих скачать: 0 • Поблагодарили: 77 раз
 Раздают: 0  |  0 KB/s  ]   Качают: 0  |  0 KB/s  ] 
 Полного источника не было 1 год 
Сообщения
 Добавлено: 2011-06-21 17:51
Модератор
Аватара пользователя
Стаж: 8 лет 1 месяц
Возраст: 20
Сообщений: 32130
Спасибок: 98563
Лайков: 80
Изображение


Сумасшедшая езда / Drive Angry 3D


Год выпуска: 2011
Страна: США
Слоган: «К черту из ада»

Жанр: фэнтези, боевик, триллер
Продолжительность: 01:44:29
Озвучивание: Дублированное [лицензия]


Бюджет: $50 000 000
Сборы в США: $10 721 033
Сборы в России: $5 749 862
Сборы в мире: $28 931 401

Мировая премьера: 24 февраля 2011
Релиз на DVD: 23 июня 2011, «CP-Digital»
Релиз на Blu-ray: 23 июня 2011, «CP-Digital»
Описание: В центре событий герой, идущий по следу негодяев, убивших его дочь. Главный герой «слетает с катушек», прыгает за руль своего автомобиля и начинает мстить, оставляя по обочинам дороги трупы похитителей.
Изображение
MPAA: Изображение - Лицам до 17 лет обязательно присутствие взрослого
Качество: BDRip 1080p R5
Формат: MKV

Видео: 11.5 mb/s, 1920x1080, 23,976 кадр/сек
Аудио: Russian: AC3, 384 kb/s (6 ch) / English: DTS, 1510 kb/s (6 ch)
Субтитры: Russian, English
Релиз группы: Изображение
Изображение
MediaInfo
Общее
Полное имя                       : E:\Drive.Angry.2011.D.BDRip.1080p.UNIONGANG.mkv
Формат                           : Matroska
Размер файла                     : 9,78 Гбайт
Продолжительность                : 1 ч. 44 м.
Общий поток                      : 13,4 Мбит/сек
Название фильма                  : Drive.Angry.2011.L1.BDRip.1080p  UNIONGANG
Дата кодирования                 : UTC 2011-06-20 19:18:11
Программа кодирования            : mkvmerge v3.0.0 ('Hang up your Hang-Ups') built on Dec 12 2009 15:20:35
Библиотека кодирования           : libebml v0.7.9 + libmatroska v0.8.1

Видео
Идентификатор                    : 1
Формат                           : AVC
Формат/Информация                : Advanced Video Codec
Профиль формата                  : High@L4.1
Параметр CABAC формата           : Да
Параметр ReFrames формата        : 4 кадры
Идентификатор кодека             : V_MPEG4/ISO/AVC
Продолжительность                : 1 ч. 44 м.
Битрейт                          : 11,5 Мбит/сек
Ширина                           : 1920 пикс.
Высота                           : 1080 пикс.
Соотношение сторон               : 16:9
Частота кадров                   : 23,976 кадр/сек
Цветовое пространство            : YUV
Подвыборка цветности             : 4:2:0
Битовая глубина                  : 8 бит
Тип развёртки                    : Прогрессивная
Бит/(Пиксели*Кадры)              : 0.231
Размер потока                    : 8,20 Гбайт (84%)
Библиотека кодирования           : x264 core 114 r1924 08d04a4
Настройки программы              : cabac=1 / ref=4 / deblock=1:-3:-3 / analyse=0x3:0x113 / me=umh / subme=10 / psy=1 / psy_rd=1.05:0.10 / mixed_ref=1 / me_range=32 / chroma_me=1 / trellis=2 / 8x8dct=1 / cqm=2 / deadzone=21,11 / fast_pskip=0 / chroma_qp_offset=-2 / threads=12 / sliced_threads=0 / nr=0 / decimate=1 / interlaced=0 / constrained_intra=0 / bframes=6 / b_pyramid=2 / b_adapt=2 / b_bias=0 / direct=3 / weightb=1 / open_gop=0 / weightp=2 / keyint=250 / keyint_min=23 / scenecut=40 / intra_refresh=0 / rc_lookahead=50 / rc=2pass / mbtree=1 / bitrate=11502 / ratetol=1.0 / qcomp=0.70 / qpmin=1 / qpmax=63 / qpstep=4 / cplxblur=20.0 / qblur=0.5 / vbv_maxrate=40000 / vbv_bufsize=40000 / nal_hrd=none / ip_ratio=1.40 / aq=2:0.90
Язык                             : English

Аудио #1
Идентификатор                    : 2
Формат                           : AC-3
Формат/Информация                : Audio Coding 3
Расширение режима                : CM (complete main)
Идентификатор кодека             : A_AC3
Продолжительность                : 1 ч. 44 м.
Вид битрейта                     : Постоянный
Битрейт                          : 384 Кбит/сек
Канал(ы)                         : 6 канала(ов)
Расположение каналов             : Front: L C R, Side: L R, LFE
Частота                          : 48,0 КГц
Битовая глубина                  : 16 бит
Метод сжатия                     : С потерями
Размер потока                    : 287 Мбайт (3%)

Аудио #2
Идентификатор                    : 3
Формат                           : DTS
Формат/Информация                : Digital Theater Systems
Идентификатор кодека             : A_DTS
Продолжительность                : 1 ч. 44 м.
Вид битрейта                     : Постоянный
Битрейт                          : 1510 Кбит/сек
Канал(ы)                         : 6 канала(ов)
Расположение каналов             : Front: L C R, Side: L R, LFE
Частота                          : 48,0 КГц
Битовая глубина                  : 24 бит
Метод сжатия                     : С потерями
Задержка видео                   : 11 мс.
Размер потока                    : 1,10 Гбайт (11%)
Язык                             : English

Текст #1
Идентификатор                    : 4
Формат                           : UTF-8
Идентификатор кодека             : S_TEXT/UTF8
Идентификатор кодека/Информация  : UTF-8 Plain Text

Текст #2
Идентификатор                    : 5
Формат                           : UTF-8
Идентификатор кодека             : S_TEXT/UTF8
Идентификатор кодека/Информация  : UTF-8 Plain Text
Свернуть
Скриншоты
Изображение
Изображение
Изображение
Свернуть
Не в сети
Профиль  
 Добавлено: 2011-06-22 09:52 (спустя 16 часов)
Аватара пользователя
Стаж: 7 лет 11 месяцев
Сообщений: 25
Спасибок: 916
Отличный фильм!!!!! Смотреть всем!
Только почему то по кинопоиску оценка низкая???
Не в сети
Профиль  
 Добавлено: 2011-06-22 17:01 (спустя 7 часов)
Top-releaser
Аватара пользователя
Стаж: 8 лет 7 месяцев
Сообщений: 1286
Спасибок: 3420
Лайков: 7
Мне кажется, или информации не хватает? Кто в ролях? Кто создатели фильма?
Не в сети
Профиль  
 Добавлено: 2011-06-22 17:34 (спустя 32 минуты)
Стаж: 5 лет 7 месяцев
Возраст: 28
Сообщений: 17

Shamman:

Мне кажется, или информации не хватает? Кто в ролях? Кто создатели фильма?
Люди, очевидно же. :ps_ih:
_________________
Изображение
Не в сети
Профиль  
 Добавлено: 2011-06-23 21:20 (спустя 1 день 3 часа)
Аватара пользователя
Стаж: 7 лет 4 месяца
Сообщений: 13
Конечно на вкус и цвет..., но мое мнение, что по кинопоиску оценка низкая не зря, я вообще бы поставил бы этому фильму 3, а Кейдж все больше разочаровывает, а жаль:(
Не в сети
Профиль  
 Добавлено: 2011-06-26 00:25 (спустя 2 дня 3 часа)
Console V.I.P.
Аватара пользователя
Стаж: 9 лет
Сообщений: 1453
Спасибок: 690
Лайков: 12
Фильм очень хорош по своему, я бы сказал просто очень хорош, снят очень грамотно, интересно поставлен, олдовый мистический боевик с черным юмором и без цензуры! Некоторые спецэффекты явно нарисованные, да и хрен с ними, на это в фильме не обращаешь внимания вообще, я думаю это сделано специально, чтобы подчеркнуть олдовость. Эдакая смесь первого "От заката до рассвета" и "Призрачного гонщика", очень похожи в общем плане и по характеру атмосферы полного пофигизма: герои не прячутся от ментов, не ищут обходных путей, не вынашивают стратегические планы и т.д., нет ничего лишнего, что мне особенно нравится в таких фильмах. И Кейдж кстати в этом фильме просто офигенно сыграл, получше чем в некоторых других, здесь он не переигрывает, как бывает у него иногда. Все остальные актеры, а хороших актеров там не мало, так же на высоте.
Кому нравятся перечисленные фильмы - смотреть обязательно, и не обращайте внимания на отзывы и оценки.
_________________
МАСТЕР ПО ИГРОВЫМ КОНСОЛЯМ
ПРОДАЖА И МОДЕРНИЗАЦИЯ ИГРОВЫХ КОНСОЛЕЙ

УСЛУГИ И КОНТАКТЫ (нажать чтобы посмотреть)
icq: 378004868 тел: 89049149337
Не в сети
Профиль  
 Добавлено: 2011-06-26 16:00 (спустя 15 часов)
Top-releaser
Аватара пользователя
Стаж: 7 лет 3 месяца
Возраст: 25
Сообщений: 1036
Спасибок: 2694
Лайков: 9

Makarich:

Конечно на вкус и цвет..., но мое мнение, что по кинопоиску оценка низкая не зря, я вообще бы поставил бы этому фильму 3, а Кейдж все больше разочаровывает, а жаль:(
+1, фильм разочаровал.
Не в сети
Профиль  
 Добавлено: 2011-06-26 18:09 (спустя 2 часа 9 минут)
Кинокомментатор
Аватара пользователя
Стаж: 9 лет
Сообщений: 1331
Лайков: 52
фильм ппц))) мало того что это чистейшей воды трешак с графикой... ну я не знаю... середины 90х) так он ещё и снят за 3 копейки... хотя бюджет 50лямов баков) ппц) куда? на что? хз) сатанисты) надсмотрщики ада) возвращение с того света) погони) убийства) ппц!)
Эмбёр Херд интересна) и в принципе хороша и красива:) педикюр ей какой то голый тип делал) хотелось на его место)))
Кэйдж просто выхлеснул сам себя))) как у группы Кровосток))) не вынимая члена в одно и пушки стреляю, от второго рукой уклоняюсь))) жара ппц)))
фильм для южных штатов США) и саундтрек для них) и всё всё всё)
в общем фильму твёрдая 5 из 10 ) и закрыли эту тему) и забыли этот фильм:)
_________________
Я ВКонтакте
Не в сети
Профиль  
 Добавлено: 2011-06-26 19:17 (спустя 1 час 7 минут)
Console V.I.P.
Аватара пользователя
Стаж: 9 лет
Сообщений: 1453
Спасибок: 690
Лайков: 12
Bronks
очень слабенький комментарий для кинокомментатора. Как ты определил, что фильм снят за 3 копейки, поподробнее пожалуйста? И раз уж ты называешь себя кинокомментатором, наверное и знатоком кино, скажи пожалуйста бывают ли трэшаки с таким бюджетом? А вот тут
закрыли эту тему) и забыли этот фильм:)
имхо приписать забыл, закрывай тему для себя. У меня смешной вопрос для кинокомментатора :) : а так называемые "примитивные" фильмы конца 80-х и 90-х с "простой" игрой Шварценеггера, Сталлоне, Уиллиса, Гибсона тебе тоже так же противны? Если да, то тебе просто не понятен жанр хорошего боевика, и судя по твоему комментарию понять этот жанр тебе не светит, увы, тогда действительно просто закрой эту тему для себя. И штамп "уровень 90-х" от тебя прозвучал как что-то оскорбительное, вот кинокомментаторы пошли, видимо выросшие на Пиратах карибских морей :-D .
_________________
МАСТЕР ПО ИГРОВЫМ КОНСОЛЯМ
ПРОДАЖА И МОДЕРНИЗАЦИЯ ИГРОВЫХ КОНСОЛЕЙ

УСЛУГИ И КОНТАКТЫ (нажать чтобы посмотреть)
icq: 378004868 тел: 89049149337
Не в сети
Профиль  
 Добавлено: 2013-06-30 17:40 (спустя 2 года)
Аватара пользователя
Стаж: 8 лет
Сообщений: 1390
Спасибок: 39
Лайков: 63
ну скорости...4 мб... эт для детей шоль :-*
Не в сети
Профиль  
Начать новую темуОтветить на тему  [ Сообщений: 10 ] 
Вы не можете начинать темы
Вы не можете отвечать на сообщения
Вы не можете редактировать свои сообщения
Вы не можете удалять свои сообщения