Правила форума

  • В этом разделе создание новых тем Запрещено.
  • Для создания новых тем пользуйтесь Корневым разделом DVD и HD фильмы.
Начать новую темуОтветить на тему  [ Сообщений: 10 ] 
Торрент файл
Размер: 7 GB • Зарегистрирован: 4 года 9 месяцев • Статус: Проверено
Скачан: 172 раза • Желающих скачать: 0 • Поблагодарили: 39 раз
 Раздают: 0  |  0 KB/s  ]   Качают: 0  |  0 KB/s  ] 
 Полного источника не было 8 месяцев 
Сообщения
 Добавлено: 2012-02-11 06:58
DVD Release Group
Аватара пользователя
Стаж: 7 лет 1 месяц
Сообщений: 3542
Спасибок: 246749
Лайков: 1016
Сумерки. Сага. Рассвет: Часть 1

The Twilight Saga: Breaking Dawn - Part 1

«Вечность - это только начало»


Изображение


Год выпуска: 2011
Страна: США
Жанр: Фэнтези, драма, мелодрама
Продолжительность: 01:57:08
Перевод: Профессиональный (полное дублирование)
Субтитры: Русские, английские, украинские
Режиссер: Билл Кондон
В ролях: Кристен Стюарт, Роберт Паттинсон, Тэйлор Лотнер, Билли Бёрк, Питер Фачинелли, Элизабет Ризер, Келлан Латс, Никки Рид, Джексон Рэтбоун, Эшли Грин
Описание: В четвертой части Белла Свон оказывается перед непростым выбором — сохранить жизнь себе или своему ребенку (наполовину вампиру, наполовину человеку). Она решает оставить малыша, но Эдвард и остальные члены семьи Каллен категорически против.
Кинопоиск: 6.02 (23003)
IMDb: 4.8 (52165)
Sample:
http://multi-up.com/646708
Качество: BDRip720p
Формат: MKV
Видео кодек: H.264
Аудио кодек: DTS
Видео: 1280x534 23.98fps 6124kbps 0.37Qf
Аудио:
Аудио Rus: 48KHz 6ch 755kbps
Аудио Eng: 48KHz 6ch 1510kbps
"MediaInfo"

Формат : Matroska
Версия формата : Version 2
Размер файла : 7,00 Гбайт
Продолжительность : 1 ч. 57 м.
Общий поток : 8558 Кбит/сек
Название фильма : Release for IRONCLUB
Дата кодирования : UTC 2012-02-10 23:01:46
Программа кодирования : mkvmerge v5.1.0 ('And so it goes') built on Nov 28 2011 23:58:28
Библиотека кодирования : libebml v1.2.3 + libmatroska v1.3.0

Видео
Идентификатор : 1
Формат : AVC
Формат/Информация : Advanced Video Codec
Профиль формата : High@L4.1
Параметр CABAC формата : Да
Параметр ReFrames формата : 12 кадров
Идентификатор кодека : V_MPEG4/ISO/AVC
Продолжительность : 1 ч. 57 м.
Битрейт : 6124 Кбит/сек
Ширина : 1280 пикселей
Высота : 534 пикселя
Соотношение сторон : 2,40:1
Частота кадров : 23,976 кадра/сек
Цветовое пространство : YUV
Субдискретизация насыщенности : 4:2:0
Битовая глубина : 8 бит
Тип развёртки : Прогрессивная
Бит/(Пиксели*Кадры) : 0.374
Размер потока : 5,01 Гбайт (72%)
Заголовок : Release for IRONCLUB
Библиотека кодирования : x264 core 120 r2120 0c7dab9
Настройки программы : cabac=1 / ref=12 / deblock=1:-3:-3 / analyse=0x3:0x133 / me=umh / subme=10 / psy=1 / psy_rd=0.95:0.05 / mixed_ref=1 / me_range=24 / chroma_me=1 / trellis=2 / 8x8dct=1 / cqm=0 / deadzone=21,11 / fast_pskip=0 / chroma_qp_offset=-3 / threads=12 / sliced_threads=0 / nr=0 / decimate=0 / interlaced=0 / bluray_compat=0 / constrained_intra=0 / bframes=7 / b_pyramid=2 / b_adapt=2 / b_bias=0 / direct=3 / weightb=1 / open_gop=0 / weightp=2 / keyint=250 / keyint_min=23 / scenecut=40 / intra_refresh=0 / rc=crf / mbtree=0 / crf=16.8 / qcomp=0.60 / qpmin=0 / qpmax=69 / qpstep=4 / ip_ratio=1.40 / pb_ratio=1.30 / aq=1:0.95
Язык : English

Аудио #1
Идентификатор : 2
Формат : DTS
Формат/Информация : Digital Theater Systems
Идентификатор кодека : A_DTS
Продолжительность : 1 ч. 57 м.
Вид битрейта : Постоянный
Битрейт : 755 Кбит/сек
Каналы : 6 каналов
Расположение каналов : Front: L C R, Side: L R, LFE
Частота : 48,0 КГц
Битовая глубина : 24 бит
Метод сжатия : С потерями
Размер потока : 632 Мбайт (9%)
Заголовок : DTS_755
Язык : Russian

Аудио #2
Идентификатор : 3
Формат : DTS
Формат/Информация : Digital Theater Systems
Профиль формата : ES
Идентификатор кодека : A_DTS
Продолжительность : 1 ч. 57 м.
Вид битрейта : Постоянный
Битрейт : 1510 Кбит/сек
Каналы : 6 каналов
Расположение каналов : Front: L C R, Side: L R, LFE
Частота : 48,0 КГц
Битовая глубина : 24 бит
Метод сжатия : С потерями
Размер потока : 1,24 Гбайт (18%)
Язык : English

Текст #1
Идентификатор : 4
Формат : UTF-8
Идентификатор кодека : S_TEXT/UTF8
Идентификатор кодека/Информация : UTF-8 Plain Text
Язык : Russian

Текст #2
Идентификатор : 5
Формат : UTF-8
Идентификатор кодека : S_TEXT/UTF8
Идентификатор кодека/Информация : UTF-8 Plain Text
Язык : Ukrainian

Текст #3
Идентификатор : 6
Формат : UTF-8
Идентификатор кодека : S_TEXT/UTF8
Идентификатор кодека/Информация : UTF-8 Plain Text
Язык : English

Текст #4
Идентификатор : 7
Формат : UTF-8
Идентификатор кодека : S_TEXT/UTF8
Идентификатор кодека/Информация : UTF-8 Plain Text
Заголовок : SDH
Язык : English

Текст #5
Идентификатор : 8
Формат : UTF-8
Идентификатор кодека : S_TEXT/UTF8
Идентификатор кодека/Информация : UTF-8 Plain Text
Язык : English

Текст #6
Идентификатор : 9
Формат : UTF-8
Идентификатор кодека : S_TEXT/UTF8
Идентификатор кодека/Информация : UTF-8 Plain Text
Заголовок : Commentary with director Bill Condon
Язык : English

Меню
00:00:00.000 : en:00:00:00.000
00:08:10.115 : en:00:08:10.115
00:11:23.683 : en:00:11:23.683
00:16:30.740 : en:00:16:30.740
00:21:03.762 : en:00:21:03.762
00:29:28.266 : en:00:29:28.266
00:34:43.290 : en:00:34:43.290
00:41:15.556 : en:00:41:15.556
00:47:42.485 : en:00:47:42.485
00:55:57.813 : en:00:55:57.813
01:04:21.441 : en:01:04:21.441
01:09:47.058 : en:01:09:47.058
01:13:47.381 : en:01:13:47.381
01:20:50.804 : en:01:20:50.804
01:28:22.964 : en:01:28:22.964
01:36:25.488 : en:01:36:25.488
01:41:44.098 : en:01:41:44.098
01:46:51.697 : en:01:46:51.697
Свернуть

"Скриншоты"

Изображение
Изображение
Изображение
Изображение
Изображение
Изображение
Изображение
Изображение
Свернуть

Раздача группы:
Изображение
Не в сети
Профиль  
 Добавлено: 2012-02-11 07:56 (спустя 57 минут)
Аватара пользователя
Стаж: 7 лет 3 месяца
Сообщений: 17
Спасибок: 449
почему не раздаем?
Не в сети
Профиль  
 Добавлено: 2012-02-11 08:10 (спустя 14 минут)
DVD Release Group
Аватара пользователя
Стаж: 7 лет 1 месяц
Сообщений: 3542
Спасибок: 246749
Лайков: 1016
vigilant
Почему не качаем?
Cкрытый текст
Изображение
Свернуть
Не в сети
Профиль  
 Добавлено: 2012-02-11 08:32 (спустя 22 минуты)
Аватара пользователя
Стаж: 7 лет 3 месяца
Сообщений: 17
Спасибок: 449
а у меня почему то так
Cкрытый текст
Изображение
Свернуть
Не в сети
Профиль  
 Добавлено: 2012-02-11 08:34 (спустя 2 минуты)
DVD Release Group
Аватара пользователя
Стаж: 7 лет 1 месяц
Сообщений: 3542
Спасибок: 246749
Лайков: 1016
vigilant
viewtopic.php?f=139&p=5178999#p5178999
Наверное проблемы на трекере.
Дайте мне свой ip и порт, попробую забить вручную.
Не в сети
Профиль  
 Добавлено: 2012-02-11 08:41 (спустя 6 минут)
Аватара пользователя
Стаж: 7 лет 3 месяца
Сообщений: 17
Спасибок: 449
смотри ЛС
закачка уже пошла
что же все же было не так?


Последний раз редактировалось vigilant 2012-02-11 08:42, всего редактировалось 1 раз.
Не в сети
Профиль  
 Добавлено: 2012-02-11 08:44 (спустя 2 минуты)
DVD Release Group
Аватара пользователя
Стаж: 7 лет 1 месяц
Сообщений: 3542
Спасибок: 246749
Лайков: 1016
vigilant
Я же говорю проблемы на трекере.
Не в сети
Профиль  
 Добавлено: 2012-02-11 08:44 (спустя 34 секунды)
Аватара пользователя
Стаж: 7 лет 3 месяца
Сообщений: 17
Спасибок: 449
спасибо! :)
Не в сети
Профиль  
 Добавлено: 2012-02-11 08:59 (спустя 14 минут)
Аватара пользователя
Стаж: 8 лет 3 месяца
Сообщений: 30
Спасибок: 34
осталось золота дождаться
Не в сети
Профиль  
 Добавлено: 2012-02-11 10:20 (спустя 1 час 20 минут)
Top-seeder
Аватара пользователя
Стаж: 7 лет 6 месяцев
Возраст: 21
Сообщений: 74
Спасибок: 90
Спасибо:)
Не в сети
Профиль  
Начать новую темуОтветить на тему  [ Сообщений: 10 ] 
Вы не можете начинать темы
Вы не можете отвечать на сообщения
Вы не можете редактировать свои сообщения
Вы не можете удалять свои сообщения