Правила форума

  • В этом разделе создание новых тем Запрещено.
  • Для создания новых тем пользуйтесь Корневым разделом DVD и HD фильмы.
Начать новую темуОтветить на тему  [ Сообщений: 7 ] 
Торрент файл
Размер: 6.53 GB • Зарегистрирован: 5 лет 1 месяц • Статус: Проверено
Скачан: 398 раз • Желающих скачать: 0 • Поблагодарили: 69 раз
 Раздают: 0  |  0 KB/s  ]   Качают: 0  |  0 KB/s  ] 
 Полного источника не было 1 год 10 месяцев 
Сообщения
 Добавлено: 2011-10-24 21:08
Руководитель релиз-группы
Аватара пользователя
Стаж: 8 лет 6 месяцев
Возраст: 25
Сообщений: 7578
Спасибок: 51913
Лайков: 14
Супер 8
Super 8

Изображение

Год выпуска: 2011
Страна: США
Слоган: «It Arrives»

Жанр: фантастика, триллер, детектив
Продолжительность: 01:51:49
Перевод: Профессиональный (полное дублирование)

Режиссер: Джей Джей Абрамс
Сценарий: Джей Джей Абрамс
Продюсер: Джей Джей Абрамс, Брайан Берк, Стивен Спилберг, Уди Недиви, Мишель Рейван
Оператор: Ларри Фонг
Композитор: Майкл Джаккино

В ролях: Джоэль Кортни, Эль Фаннинг, Райли Гриффитс, Райан Ли, Гэбриел Бассо, Захари Миллс, Кайл Чандлер, Джессика Так, Джоэль МакКиннон Миллер, Рон Элдард, Аманда Мичалка, Эндрю Дж. Миллер
Дублёры: Ефим Клиновский, Василий Дахненко, Лиза Мартиросова, Андрей Градов

Описание: Летом 1979 года несколько друзей из маленького городка в Огайо, снимающие любительский фильм на камеру «Супер 8», стали свидетелями железнодорожной катастрофы. И вскоре они начинают подозревать, что это не было просто несчастным случаем. Странные исчезновения и необъяснимые события начинают происходить в городке, и местный шериф пытается разгадать их тайну - что-то куда более ужасающее, чем все могли себе представить.

Релиз группы: Изображение

Качество: BDRip 720p R5
Формат: MKV
Видео: MPEG-4 AVC, 1280x534, 6411 kb/s, 23.976 fps
Аудио: Russian: AC3, 448 kb/s (6 ch) 48 kHz
Аудио: English: DTS, 1510 kb/s (6 ch) 48 kHz
"Знаете ли Вы, что..."
  • Как и в других фильмах режиссера Джей Джей Абрамса, съемки «Супер 8» проводились в обстановке чрезвычайной секретности.
  • Фильм сложился из двух отдельных проектов - истории взросления подростков, изучающих жизнь через видоискатель камеры Super 8, и предложенного сюжета для постановки, связанного с пресловутой «Зоной 51» (военной базой ВВС США, где, по легенде, проводят опыты над инопланетными организмами).
  • Чтобы соблюсти секретность, картину снимали под названием «Дорогуши» («Darlings»).
  • В любительском кино о зомби, которое снимают герои фильма, фигурирует компания Romero Chemicals. Это дань уважения режиссеру Джорджу Ромеро.
  • Подростки снимали свой любительский фильм на 8-милиметровую пленку Eastman Color Super 8. Эта пленка была разработана в 1965 году и была популярна у любителей поснимать, которыми были Джей Джей Абрамс и Стивен Спилберг.
Свернуть
"MediaInfo"
H:\Super.8.2011.D.BDRip.720p.ELEKTRI4KA.mkv
   General
      Complete name : H:\Super.8.2011.D.BDRip.720p.ELEKTRI4KA.mkv
      Format : Matroska
      File size : 6.53 GiB
      Duration : 1h 51mn
      Overall bit rate : 8 362 Kbps
      Movie name : Super.8.2011.720p.BluRay.x264-WiKi-APR-ELEKTRI4KA
      Encoded date : UTC 2011-10-24 16:20:34
      Writing application : mkvmerge v5.0.1 ('Es ist Sommer') built on Oct  9 2011 11:55:43
      Writing library : libebml v1.2.2 + libmatroska v1.3.0
   Video #1
      ID : 1
      Format : AVC
      Format/Info : Advanced Video Codec
      Format profile : High@L4.1
      Format settings, CABAC : Yes
      Format settings, ReFrames : 8 frames
      Muxing mode : Container profile=Unknown@4.1
      Codec ID : V_MPEG4/ISO/AVC
      Duration : 1h 51mn
      Bit rate : 6 238 Kbps
      Nominal bit rate : 6 411 Kbps
      Width : 1 280 pixels
      Height : 534 pixels
      Display aspect ratio : 2.35:1
      Frame rate : 23.976 fps
      Resolution : 24 bits
      Colorimetry : 4:2:0
      Scan type : Progressive
      Bits/(Pixel*Frame) : 0.381
      Stream size : 4.87 GiB (75%)
      Title : Super.8.2011.720p.BluRay.x264-WiKi
      Writing library : x264 core 98 r1649 c54c47d
      Encoding settings : cabac=1 / ref=8 / deblock=1:-3:-3 / analyse=0x3:0x113 / me=umh / subme=9 / psy=1 / psy_rd=1.10:0.00 / mixed_ref=1 / me_range=32 / chroma_me=1 / trellis=2 / 8x8dct=1 / cqm=0 / deadzone=21,11 / fast_pskip=0 / chroma_qp_offset=-4 / threads=12 / sliced_threads=0 / nr=0 / decimate=0 / interlaced=0 / constrained_intra=0 / bframes=6 / b_pyramid=2 / b_adapt=2 / b_bias=0 / direct=3 / weightb=1 / weightp=2 / keyint=250 / keyint_min=25 / scenecut=40 / intra_refresh=0 / rc_lookahead=48 / rc=2pass / mbtree=1 / bitrate=6411 / ratetol=1.0 / qcomp=0.60 / qpmin=10 / qpmax=51 / qpstep=4 / cplxblur=20.0 / qblur=0.5 / ip_ratio=1.40 / aq=1:0.80
   Audio #2
      ID : 2
      Format : AC-3
      Format/Info : Audio Coding 3
      Codec ID : A_AC3
      Duration : 1h 51mn
      Bit rate mode : Constant
      Bit rate : 448 Kbps
      Channel(s) : 6 channels
      Channel positions : Front: L C R, Surround: L R, LFE
      Sampling rate : 48.0 KHz
      Stream size : 358 MiB (5%)
      Title : AC3 @ 448 kbs 5.1
      Language : Russian
   Audio #3
      ID : 3
      Format : DTS
      Format/Info : Digital Theater Systems
      Codec ID : A_DTS
      Duration : 1h 51mn
      Bit rate mode : Constant
      Bit rate : 1 510 Kbps
      Channel(s) : 6 channels
      Channel positions : Front: L C R, Surround: L R, LFE
      Sampling rate : 48.0 KHz
      Resolution : 24 bits
      Stream size : 1.18 GiB (18%)
      Title : DTS 5.1 @ 1510 Kbps
   Text #4
      ID : 4
      Format : UTF-8
      Codec ID : S_TEXT/UTF8
      Codec ID/Info : UTF-8 Plain Text
      Title : Full
Свернуть
"Скриншоты"

Изображение
Изображение
Изображение
Свернуть
Не в сети
Профиль  
 Добавлено: 2011-10-25 16:52 (спустя 19 часов)
Аватара пользователя
Стаж: 7 лет 2 месяца
Возраст: 24
Сообщений: 25
Лайков: 1
хорошее кино
Не в сети
Профиль  
 Добавлено: 2011-10-25 22:48 (спустя 5 часов)
Аватара пользователя
Стаж: 7 лет 5 месяцев
Сообщений: 55
Спасибок: 105
Отличный фильм. Лично мне понравился. =)
Не в сети
Профиль  
 Добавлено: 2011-10-26 06:26 (спустя 7 часов)
Аватара пользователя
Стаж: 9 лет
Сообщений: 167
Спасибок: 38
rкогда будет в полном качестве гигов этак на 40
Не в сети
Профиль  
 Добавлено: 2011-10-27 11:25 (спустя 1 день 4 часа)
Модератор
Аватара пользователя
Стаж: 9 лет 1 месяц
Возраст: 29
Сообщений: 1620
Спасибок: 1589
Лайков: 11
dilmah, везде что ли один и тот же вопрос задаешь?
_________________
ИзображениеИзображение
Core i5 4670K 4 ГГц / MSI Z87 G45 Gaming / 2x ASUS GTX660 2 Gb - SLI / 16 Gb DDR3 CORSAIR 1600 Mhz / Microlab 5.1 X15 / SSD A-Data 128 Gb + Seagate 1 Tb + Seagate 1 Tb / Philips 24'(1920x1080) + LG 22'(1680x1050)
Квас как танк?
Изображение
Свернуть
Не в сети
Профиль  
 Добавлено: 2011-10-28 08:20 (спустя 20 часов)
Стаж: 6 лет 6 месяцев
Сообщений: 175
Лайков: 2
Здравствуйте фильм хороший но мы не смогли его посмотреть по мультимедио плееру iconBIT 7 видео инфо unknown.oxo.ofps нет картинки и это ни один фильм и становится все чаще, по компьютору ни смотрим хоть и кочает и открывает филмы ссылка torrent 1.7.7 ,у bit torrenta все HD видит медио плеер,nn.tt org помогите пожалуйста добрым письменным словом.В чем у нас причина?Нам нравиться у вас качать и раздавать.Большое спасибо всем работникам nn.tt org .
Не в сети
Профиль  
 Добавлено: 2011-11-01 14:43 (спустя 4 дня)
Аватара пользователя
Стаж: 9 лет 1 месяц
Сообщений: 108
Спасибок: 248

андрей1802k:

Здравствуйте фильм хороший но мы не смогли его посмотреть по мультимедио плееру iconBIT 7 видео инфо unknown.oxo.ofps нет картинки и это ни один фильм и становится все чаще, по компьютору ни смотрим хоть и кочает и открывает филмы ссылка torrent 1.7.7 ,у bit torrenta все HD видит медио плеер,nn.tt org помогите пожалуйста добрым письменным словом.В чем у нас причина?Нам нравиться у вас качать и раздавать.Большое спасибо всем работникам nn.tt org .

Феерично :-D
Не в сети
Профиль  
Начать новую темуОтветить на тему  [ Сообщений: 7 ] 
Вы не можете начинать темы
Вы не можете отвечать на сообщения
Вы не можете редактировать свои сообщения
Вы не можете удалять свои сообщения