Правила форума

  • В этом разделе создание новых тем Запрещено.
  • Для создания новых тем пользуйтесь Корневым разделом DVD и HD фильмы.
Начать новую темуОтветить на тему  [ Сообщений: 10 ] 
Торрент файл
Размер: 15.66 GB • Зарегистрирован: 5 лет 1 месяц • Статус: Проверено
Скачан: 623 раза • Желающих скачать: 0 • Поблагодарили: 104 раза
 Раздают: 1  |  0 KB/s  ]   Качают: 0  |  0 KB/s  ] 
Сообщения
 Добавлено: 2011-10-24 22:12
Руководитель релиз-группы
Аватара пользователя
Стаж: 8 лет 6 месяцев
Возраст: 25
Сообщений: 7578
Спасибок: 51910
Лайков: 14
Супер 8
Super 8

Изображение

Год выпуска: 2011
Страна: США
Слоган: «It Arrives»

Жанр: фантастика, триллер, детектив
Продолжительность: 01:51:49
Перевод: Профессиональный (полное дублирование)

Режиссер: Джей Джей Абрамс
Сценарий: Джей Джей Абрамс
Продюсер: Джей Джей Абрамс, Брайан Берк, Стивен Спилберг, Уди Недиви, Мишель Рейван
Оператор: Ларри Фонг
Композитор: Майкл Джаккино

В ролях: Джоэль Кортни, Эль Фаннинг, Райли Гриффитс, Райан Ли, Гэбриел Бассо, Захари Миллс, Кайл Чандлер, Джессика Так, Джоэль МакКиннон Миллер, Рон Элдард, Аманда Мичалка, Эндрю Дж. Миллер
Дублёры: Ефим Клиновский, Василий Дахненко, Лиза Мартиросова, Андрей Градов

Описание: Летом 1979 года несколько друзей из маленького городка в Огайо, снимающие любительский фильм на камеру «Супер 8», стали свидетелями железнодорожной катастрофы. И вскоре они начинают подозревать, что это не было просто несчастным случаем. Странные исчезновения и необъяснимые события начинают происходить в городке, и местный шериф пытается разгадать их тайну - что-то куда более ужасающее, чем все могли себе представить.

Релиз группы: Изображение

Качество: BDRip 1080p R5
Формат: MKV
Видео: MPEG-4 AVC, 1920x800, 18.1 mb/s, 23.976 fps
Аудио: Russian: AC3, 448 kb/s (6 ch) 48 kHz
Аудио: English: DTS, 1510 kb/s (6 ch) 48 kHz
"Знаете ли Вы, что..."
  • Как и в других фильмах режиссера Джей Джей Абрамса, съемки «Супер 8» проводились в обстановке чрезвычайной секретности.
  • Фильм сложился из двух отдельных проектов - истории взросления подростков, изучающих жизнь через видоискатель камеры Super 8, и предложенного сюжета для постановки, связанного с пресловутой «Зоной 51» (военной базой ВВС США, где, по легенде, проводят опыты над инопланетными организмами).
  • Чтобы соблюсти секретность, картину снимали под названием «Дорогуши» («Darlings»).
  • В любительском кино о зомби, которое снимают герои фильма, фигурирует компания Romero Chemicals. Это дань уважения режиссеру Джорджу Ромеро.
  • Подростки снимали свой любительский фильм на 8-милиметровую пленку Eastman Color Super 8. Эта пленка была разработана в 1965 году и была популярна у любителей поснимать, которыми были Джей Джей Абрамс и Стивен Спилберг.
Свернуть
"MediaInfo"
General
Complete name                    : Super.8.2011.D.BDRip.1080p.ELEKTRI4KA.mkv
Format                           : Matroska
File size                        : 15.7 GiB
Duration                         : 1h 51mn
Overall bit rate                 : 20.1 Mbps
Movie name                       : ELEKTRI4KA
Encoded date                     : UTC 2011-10-24 16:48:00
Writing application              : mkvmerge v3.4.0 ('Rapunzel') сборка от May 15 2010 09:38:20
Writing library                  : libebml v0.8.0 + libmatroska v0.9.0

Video
ID                               : 1
Format                           : AVC
Format/Info                      : Advanced Video Codec
Format profile                   : High@L4.1
Format settings, CABAC           : Yes
Format settings, ReFrames        : 5 frames
Codec ID                         : V_MPEG4/ISO/AVC
Duration                         : 1h 51mn
Bit rate                         : 18.1 Mbps
Width                            : 1 920 pixels
Height                           : 800 pixels
Display aspect ratio             : 2.40:1
Frame rate                       : 23.976 fps
Color space                      : YUV
Chroma subsampling               : 4:2:0
Bit depth                        : 8 bits
Scan type                        : Progressive
Bits/(Pixel*Frame)               : 0.491
Stream size                      : 13.8 GiB (88%)
Title                            : Super.8.2011.BluRay.1080p.x264.DTS-HDChina
Writing library                  : x264 core 118 r2085 8a62835
Encoding settings                : cabac=1 / ref=5 / deblock=1:-3:-3 / analyse=0x3:0x133 / me=umh / subme=10 / psy=1 / psy_rd=0.90:0.00 / mixed_ref=1 / me_range=48 / chroma_me=1 / trellis=2 / 8x8dct=1 / cqm=0 / deadzone=21,11 / fast_pskip=0 / chroma_qp_offset=-2 / threads=6 / sliced_threads=0 / nr=0 / decimate=0 / interlaced=0 / bluray_compat=0 / constrained_intra=0 / bframes=7 / b_pyramid=2 / b_adapt=2 / b_bias=0 / direct=3 / weightb=1 / open_gop=0 / weightp=2 / keyint=360 / keyint_min=2 / scenecut=40 / intra_refresh=0 / rc_lookahead=60 / rc=2pass / mbtree=1 / bitrate=18092 / ratetol=1.0 / qcomp=0.65 / qpmin=0 / qpmax=69 / qpstep=4 / cplxblur=20.0 / qblur=0.5 / ip_ratio=1.40 / aq=2:0.90
Language                         : English

Audio #1
ID                               : 2
Format                           : AC-3
Format/Info                      : Audio Coding 3
Mode extension                   : CM (complete main)
Codec ID                         : A_AC3
Duration                         : 1h 51mn
Bit rate mode                    : Constant
Bit rate                         : 448 Kbps
Channel(s)                       : 6 channels
Channel positions                : Front: L C R, Side: L R, LFE
Sampling rate                    : 48.0 KHz
Bit depth                        : 16 bits
Stream size                      : 358 MiB (2%)
Title                            : DUB
Language                         : Russian

Audio #2
ID                               : 3
Format                           : DTS
Format/Info                      : Digital Theater Systems
Codec ID                         : A_DTS
Duration                         : 1h 51mn
Bit rate mode                    : Constant
Bit rate                         : 1 510 Kbps
Channel(s)                       : 6 channels
Channel positions                : Front: L C R, Side: L R, LFE
Sampling rate                    : 48.0 KHz
Bit depth                        : 24 bits
Video delay                      : 11ms
Stream size                      : 1.18 GiB (8%)
Title                            : Original
Language                         : English

Text
ID                               : 4
Format                           : UTF-8
Codec ID                         : S_TEXT/UTF8
Codec ID/Info                    : UTF-8 Plain Text
Title                            : English
Language                         : English

Menu
00:00:00.000                     : en:Chapter.01
00:07:01.504                     : en:Chapter.02
00:11:33.275                     : en:Chapter.03
00:19:25.164                     : en:Chapter.04
00:26:43.518                     : en:Chapter.05
00:33:36.514                     : en:Chapter.06
00:40:30.511                     : en:Chapter.07
00:45:42.156                     : en:Chapter.08
00:51:57.114                     : en:Chapter.09
00:56:59.958                     : en:Chapter.10
01:02:24.365                     : en:Chapter.11
01:08:12.505                     : en:Chapter.12
01:13:30.906                     : en:Chapter.13
01:18:33.875                     : en:Chapter.14
01:25:31.334                     : en:Chapter.15
01:30:25.378                     : en:Chapter.16
01:38:20.352                     : en:Chapter.17
01:43:37.836                     : en:Chapter.18
Свернуть
"Скриншоты"

Изображение
Изображение
Изображение
Свернуть
Не в сети
Профиль  
 Добавлено: 2011-10-26 06:28 (спустя 1 день 8 часов)
Аватара пользователя
Стаж: 9 лет
Сообщений: 167
Спасибок: 38
когда будет в полном качестве гигов этак на 40
Не в сети
Профиль  
 Добавлено: 2011-10-26 17:40 (спустя 11 часов)
Аватара пользователя
Стаж: 7 лет 8 месяцев
Сообщений: 206
Хороший фильм, посмотреть можно. Спасибо!!! Качество отличное, а 40 гигов не стоит качать( фильм твёрдая четвёрка по пяти - бальной шкале).
Не в сети
Профиль  
 Добавлено: 2011-10-27 12:29 (спустя 18 часов)
Аватара пользователя
Стаж: 8 лет 7 месяцев
Сообщений: 340
Спасибок: 22
Лайков: 3
Фильм - полная копия "Инопланетянина" только с компьютерной графикой, для семейного просмотра на один раз. Много шума было по этому поводу из-за ничего абсолютна. Ожидалось намного БОЛЬШЕЕ!
Не в сети
Профиль  
 Добавлено: 2011-10-27 13:44 (спустя 1 час 15 минут)
Модератор релиз-группы
Аватара пользователя
Стаж: 9 лет 1 месяц
Возраст: 97
Сообщений: 11659
Спасибок: 6531
Лайков: 269

dilmah:

когда будет в полном качестве гигов этак на 40

aleksnik866:

а 40 гигов не стоит качать
да и не будет ремукс столько весить, на та продолжительность... Ну макс 20-23 с дорогами
Всё остальное допы, если блюр двухслойный
_________________
Изображение
Не в сети
Профиль  
 Добавлено: 2011-11-02 13:17 (спустя 5 дней)
Аватара пользователя
Стаж: 8 лет 7 месяцев
Возраст: 27
Сообщений: 380
Спасибок: 75
Отстойный фильмец, я уж думал там действительно че-то крутое судя по рекламе. Оказался самый банальный фильм. Если время дорого то смотреть не советую.
_________________
Cкрытый текст
Моя Конфа:
ASUS M2A-MX;
БП 450W;
DualCore AMD Athlon 64 X2 3600+, 2000 MHz;
4Gb RAM;
ATI Radeon HD 4670 1024Mb;
ST3750528AS 750Gb HDD;
TV-tuner Beholder tv 607FM;
WiFi adapter TP-Link PCI-Express;
Windows 7 X64
Свернуть
Не в сети
Профиль  
 Добавлено: 2011-11-03 06:29 (спустя 17 часов)
Аватара пользователя
Стаж: 9 лет
Сообщений: 167
Спасибок: 38
хочу полное фулку ашдишку
Не в сети
Профиль  
 Добавлено: 2012-03-24 12:27 (спустя 4 месяца 21 день)
Аватара пользователя
Стаж: 8 лет 10 месяцев
Возраст: 27
Сообщений: 721
Спасибок: 5528
Лайков: 1
ниче фильм, мне понравился :)
_________________
Изображение
Не в сети
Профиль  
 Добавлено: 2012-12-09 14:35 (спустя 8 месяцев)
Стаж: 4 года 1 месяц
Сообщений: 17
Дайте скорости, пожалуйста!
Не в сети
Профиль  
 Добавлено: 2012-12-11 21:12 (спустя 2 дня 6 часов)
Стаж: 8 лет 1 месяц
Сообщений: 24
редкостное Гэ...
Не в сети
Профиль  
Начать новую темуОтветить на тему  [ Сообщений: 10 ] 
Вы не можете начинать темы
Вы не можете отвечать на сообщения
Вы не можете редактировать свои сообщения
Вы не можете удалять свои сообщения