Правила форума

  • В этом разделе создание новых тем Запрещено.
  • Для создания новых тем пользуйтесь Корневым разделом DVD и HD фильмы.
Начать новую темуОтветить на тему  [ 1 сообщение ] 
Торрент файл
Размер: 5.77 GB • Зарегистрирован: 4 года • Статус: # Сомнительно
Скачан: 60 раз • Желающих скачать: 0 • Поблагодарили: 10 раз
 Раздают: 0  |  0 KB/s  ]   Качают: 0  |  0 KB/s  ] 
 Полного источника не было 20 дней 
Сообщения
 Добавлено: 2012-11-27 21:18
Модератор
Аватара пользователя
Стаж: 6 лет 10 месяцев
Возраст: 33
Сообщений: 5908
Спасибок: 61239
Лайков: 3540
Изображение

Супер 8
Super 8


Год выпуска: 2011
Страна: США
Слоган: «It arrives.»
Жанр: фантастика, триллер, детектив
Продолжительность: 01:51:48
Перевод: Профессиональный (полное дублирование)
Режиссер: Джей Джей Абрамс
Сценарий: Джей Джей Абрамс
Продюсер: Джей Джей Абрамс, Брайан Берк, Стивен Спилберг, Томми Гормли, Уди Недиви
Оператор: Ларри Фонг
Композитор: Майкл Джаккино
В ролях: Джоэл Кортни, Эль Фаннинг, Джессика Так, Джоэль МакКиннон Миллер, Райан Ли, Захари Миллс, Райли Гриффитс, Гэбриел Бассо, Кайл Чандлер, Рон Элдард, Аманда Мичалка, Эндрю Дж. Миллер
Бюджет: $50 000 000
Сборы в США: $127 004 179
Сборы в России: $8 390 158
Сборы в мире: $260 089 063
Мировая премьера: 9 июня 2011
Релиз на DVD: 24 ноября 2011, «Новый Диск»
Релиз на Blu-ray: 1 декабря 2011, «Новый Диск»
Описание: Летом 1979 года несколько друзей из маленького городка, снимающие любительский фильм на камеру «Супер 8», стали свидетелями железнодорожной катастрофы. И вскоре они начинают подозревать, что это не было просто несчастным случаем. Странные исчезновения и необъяснимые события начинают происходить в городке, и местный шериф пытается разгадать их тайну - что-то куда более ужасающее, чем все могли себе представить.

Изображение User Rating: 6.632 (32 243)
Изображение User Rating: 7.20 (154 954)
MPAA: PG-13 - Детям до 13 лет просмотр не желателен
Раздача группы: Изображение
Качество: BDRip, 1080p
Формат: AVI
Видео: 1920x800, 6105 Kbps, 23.976 fps
Аудио №1: AC-3, 6 ch, 640 kbps (Rus)
Аудио №2: AC-3, 6 ch, 640 kbps (Eng)
mediainfo
Общее
Уникальный идентификатор : 172074988650001031430209896156900513638 (0x81746FF4FF53234A82F66B70201E5766)
Полное имя : Супер 8.2011.BDRip.1080p.Rus.Eng.mkv
Формат : Matroska
Версия формата : Version 4 / Version 2
Размер файла : 5,77 Гбайт
Продолжительность : 1 ч. 51 м.
Общий поток : 7388 Кбит/сек
Название фильма : Супер 8.2011
Дата кодирования : UTC 2010-02-22 21:41:31
Программа кодирования : mkvmerge v5.8.0 ('No Sleep / Pillow') built on Nov 13 2012 19:43:22
Библиотека кодирования : libebml v1.3.0 + libmatroska v1.4.0

Видео
Идентификатор : 1
Формат : AVC
Формат/Информация : Advanced Video Codec
Профиль формата : High@L4.1
Параметр CABAC формата : Да
Параметр ReFrames формата : 5 кадров
Идентификатор кодека : V_MPEG4/ISO/AVC
Продолжительность : 1 ч. 51 м.
Битрейт : 6105 Кбит/сек
Ширина : 1920 пикселей
Высота : 800 пикселей
Соотношение сторон : 2,40:1
Режим частоты кадров : Постоянный
Частота кадров : 23,976 кадра/сек
Цветовое пространство : YUV
Субдискретизация насыщенности : 4:2:0
Битовая глубина : 8 бит
Тип развёртки : Прогрессивная
Бит/(Пиксели*Кадры) : 0.166
Размер потока : 4,66 Гбайт (81%)
Заголовок : Rip by Boriy
Библиотека кодирования : x264 core 129 r2230 1cffe9f
Настройки программы : cabac=1 / ref=5 / deblock=1:0:0 / analyse=0x3:0x113 / me=umh / subme=10 / psy=1 / psy_rd=1.00:0.10 / mixed_ref=1 / me_range=32 / chroma_me=1 / trellis=2 / 8x8dct=1 / cqm=0 / deadzone=21,11 / fast_pskip=0 / chroma_qp_offset=-3 / threads=12 / lookahead_threads=2 / sliced_threads=0 / nr=0 / decimate=0 / interlaced=0 / bluray_compat=0 / constrained_intra=0 / bframes=5 / b_pyramid=2 / b_adapt=2 / b_bias=0 / direct=3 / weightb=1 / open_gop=0 / weightp=2 / keyint=240 / keyint_min=23 / scenecut=40 / intra_refresh=0 / rc=2pass / mbtree=0 / bitrate=6105 / ratetol=1.0 / qcomp=0.60 / qpmin=0 / qpmax=69 / qpstep=4 / cplxblur=20.0 / qblur=0.5 / ip_ratio=1.40 / pb_ratio=1.30 / aq=1:0.90
Язык : English
Default : Да
Forced : Нет

Аудио #1
Идентификатор : 2
Формат : AC-3
Формат/Информация : Audio Coding 3
Расширение режима : CM (complete main)
Параметр Endianness формата : Big
Идентификатор кодека : A_AC3
Продолжительность : 1 ч. 51 м.
Вид битрейта : Постоянный
Битрейт : 640 Кбит/сек
Каналы : 6 каналов
Расположение каналов : Front: L C R, Side: L R, LFE
Частота : 48,0 КГц
Битовая глубина : 16 бит
Метод сжатия : С потерями
Размер потока : 512 Мбайт (9%)
Заголовок : Дубляж
Язык : Russian
Default : Да
Forced : Нет

Аудио #2
Идентификатор : 3
Формат : AC-3
Формат/Информация : Audio Coding 3
Расширение режима : CM (complete main)
Параметр Endianness формата : Big
Идентификатор кодека : A_AC3
Продолжительность : 1 ч. 51 м.
Вид битрейта : Постоянный
Битрейт : 640 Кбит/сек
Каналы : 6 каналов
Расположение каналов : Front: L C R, Side: L R, LFE
Частота : 48,0 КГц
Битовая глубина : 16 бит
Метод сжатия : С потерями
Размер потока : 512 Мбайт (9%)
Заголовок : Оригинал
Язык : English
Default : Нет
Forced : Нет

Текст #1
Идентификатор : 4
Формат : UTF-8
Идентификатор кодека : S_TEXT/UTF8
Идентификатор кодека/Информация : UTF-8 Plain Text
Заголовок : Forced
Язык : Russian
Default : Да
Forced : Да

Текст #2
Идентификатор : 5
Формат : UTF-8
Идентификатор кодека : S_TEXT/UTF8
Идентификатор кодека/Информация : UTF-8 Plain Text
Заголовок : Full
Язык : Russian
Default : Нет
Forced : Нет

Текст #3
Идентификатор : 6
Формат : UTF-8
Идентификатор кодека : S_TEXT/UTF8
Идентификатор кодека/Информация : UTF-8 Plain Text
Заголовок : Full
Язык : English
Default : Нет
Forced : Нет

Меню
00:00:00.000 : :Chapter 1
00:07:01.504 : :Chapter 2
00:11:33.275 : :Chapter 3
00:19:25.164 : :Chapter 4
00:26:43.518 : :Chapter 5
00:33:36.514 : :Chapter 6
00:40:30.511 : :Chapter 7
00:45:42.156 : :Chapter 8
00:51:57.113 : :Chapter 9
00:56:59.958 : :Chapter 10
01:02:24.365 : :Chapter 11
01:08:12.505 : :Chapter 12
01:13:30.906 : :Chapter 13
01:18:33.875 : :Chapter 14
01:25:31.334 : :Chapter 15
01:30:25.378 : :Chapter 16
01:38:20.352 : :Chapter 17
01:43:37.836 : :Chapter 18
01:51:48.493 : :Chapter 19
Свернуть
"Знаете ли Вы, что..."
  • Как и в других фильмах режиссера Джей Джей Абрамса, съемки «Супер 8» проводились в обстановке чрезвычайной секретности.
  • Фильм сложился из двух отдельных проектов - истории взросления подростков, изучающих жизнь через видоискатель камеры Super 8, и предложенного сюжета для постановки, связанного с пресловутой «Зоной 51» (военной базой ВВС США, где, по легенде, проводят опыты над инопланетными организмами).
  • Чтобы соблюсти секретность, картину снимали под названием «Дорогуши» («Darlings»).
  • В любительском кино о зомби, которое снимают герои фильма, фигурирует компания Romero Chemicals. Это дань уважения режиссеру Джорджу Ромеро.
  • Подростки снимали свой любительский фильм на 8-миллиметровую пленку Eastman Color Super 8. Эта пленка была разработана в 1965 году и была популярна у любителей поснимать, которыми были Джей Джей Абрамс и Стивен Спилберг.
Свернуть
Скриншоты

Изображение
Изображение
Изображение
Изображение
Свернуть
_________________
ИзображениеИзображение Изображение
Изображение
 tany1984 и di-ys1 нравится это.
Не в сети
Профиль  
Начать новую темуОтветить на тему  [ 1 сообщение ] 
Вы не можете начинать темы
Вы не можете отвечать на сообщения
Вы не можете редактировать свои сообщения
Вы не можете удалять свои сообщения