Правила форума

  • В этом разделе создание новых тем Запрещено.
  • Для создания новых тем пользуйтесь Корневым разделом DVD и HD фильмы.
Начать новую темуОтветить на тему  [ 1 сообщение ] 
Торрент файл
Размер: 8 GB • Зарегистрирован: 4 года 1 месяц • Статус: Проверено
Скачан: 32 раза • Желающих скачать: 0 • Поблагодарили: 9 раз
 Раздают: 0  |  0 KB/s  ]   Качают: 0  |  0 KB/s  ] 
 Полного источника не было 2 года 10 месяцев 
Сообщения
 Добавлено: 2012-10-13 19:13
Модератор релиз-группы
Аватара пользователя
Стаж: 9 лет 1 месяц
Возраст: 97
Сообщений: 11659
Спасибок: 6532
Лайков: 269
Супер Майк / Magic Mike


Изображение


Год выпуска: 2012
Страна: США
Жанр: Драма, комедия
Продолжительность: 01:50:12
Перевод: Профессиональный (полное дублирование)
Cубтитры: английские
Режиссер: Стивен Содерберг
В ролях: Ченнинг Татум, Алекс Петтифер, Мэттью МакКонахи, Мэтт Бомер, Джо Манганьелло, Кевин Нэш, Оливия Манн, Джеймс Мартин Келли, Коуди Хорн, Рейд Каролин
Описание: Это фильм о настоящей мужской дружбе в мире стриптизеров. Главный герой — танцор, который обучает молодого парня, как необходимо вести себя на сцене и около шеста.
Изображение
Качество: BDRip 1080p
Формат: mkv
Видео кодек: MPEG-4
Аудио кодек: AC3
Видео:MPEG4/ISO/AVC / 1920х808 / 2,40:1 / 8408 / 23,976 fps
Аудио: Russian / AC-3 / 5.1 / 448 Кбит/с / 48 kHz / 16 bit
Аудио 2: English / DTS Audio / 5.1 / 1510 kbps / 48 kHz / 24 bit
"MediaInfo"
Формат : Matroska
Версия формата : Version 2
Размер файла : 8,00 Гбайт
Продолжительность : 1 ч. 50 м.
Общий поток : 10,4 Мбит/сек
Дата кодирования : UTC 2012-10-12 12:10:06
Программа кодирования : mkvmerge v5.8.0 ('No Sleep / Pillow') built on Sep 2 2012 15:37:04
Библиотека кодирования : libebml v1.2.3 + libmatroska v1.3.0

Видео
Идентификатор : 1
Формат : AVC
Формат/Информация : Advanced Video Codec
Профиль формата : High@L4.1
Параметр CABAC формата : Да
Параметр ReFrames формата : 5 кадров
Идентификатор кодека : V_MPEG4/ISO/AVC
Битрейт : 8408 Кбит/сек
Ширина : 1920 пикселей
Высота : 808 пикселей
Соотношение сторон : 2,40:1
Режим частоты кадров : Переменный
Частота кадров в оригинале : 23,976 кадра/сек
Цветовое пространство : YUV
Субдискретизация насыщенности : 4:2:0
Битовая глубина : 8 бит
Тип развёртки : Прогрессивная
Бит/(Пиксели*Кадры) : 0.226
Библиотека кодирования : x264 core 128 r2216 198a7ea
Настройки программы : cabac=1 / ref=5 / deblock=1:0:0 / analyse=0x3:0x133 / me=umh / subme=7 / psy=1 / psy_rd=1.00:0.00 / mixed_ref=1 / me_range=16 / chroma_me=1 / trellis=1 / 8x8dct=1 / cqm=0 / deadzone=21,11 / fast_pskip=0 / chroma_qp_offset=-2 / threads=12 / lookahead_threads=2 / sliced_threads=0 / nr=0 / decimate=1 / interlaced=0 / bluray_compat=0 / constrained_intra=0 / bframes=3 / b_pyramid=2 / b_adapt=1 / b_bias=0 / direct=1 / weightb=1 / open_gop=0 / weightp=2 / keyint=250 / keyint_min=23 / scenecut=40 / intra_refresh=0 / rc_lookahead=40 / rc=2pass / mbtree=1 / bitrate=8408 / ratetol=1.0 / qcomp=0.60 / qpmin=0 / qpmax=69 / qpstep=4 / cplxblur=20.0 / qblur=0.5 / ip_ratio=1.40 / aq=1:1.00
Язык : English
Default : Нет
Forced : Нет

Аудио #1
Идентификатор : 2
Формат : AC-3
Формат/Информация : Audio Coding 3
Расширение режима : CM (complete main)
Параметр Endianness формата : Big
Идентификатор кодека : A_AC3
Продолжительность : 1 ч. 50 м.
Вид битрейта : Постоянный
Битрейт : 448 Кбит/сек
Каналы : 6 каналов
Расположение каналов : Front: L C R, Side: L R, LFE
Частота : 48,0 КГц
Битовая глубина : 16 бит
Метод сжатия : С потерями
Размер потока : 354 Мбайт (4%)
Язык : Russian
Default : Да
Forced : Нет

Аудио #2
Идентификатор : 3
Формат : DTS
Формат/Информация : Digital Theater Systems
Идентификатор кодека : A_DTS
Продолжительность : 1 ч. 50 м.
Вид битрейта : Постоянный
Битрейт : 1510 Кбит/сек
Каналы : 6 каналов
Расположение каналов : Front: L C R, Side: L R, LFE
Частота : 48,0 КГц
Битовая глубина : 24 бит
Метод сжатия : С потерями
Размер потока : 1,17 Гбайт (15%)
Язык : English
Default : Нет
Forced : Нет

Текст
Идентификатор : 4
Формат : UTF-8
Идентификатор кодека : S_TEXT/UTF8
Идентификатор кодека/Информация : UTF-8 Plain Text
Язык : English
Default : Нет
Forced : Нет

Меню
00:00:00.000 : en:00:00:00.000
00:04:31.855 : en:00:04:31.855
00:10:30.380 : en:00:10:30.380
00:16:08.509 : en:00:16:08.509
00:21:07.183 : en:00:21:07.183
00:26:17.868 : en:00:26:17.868
00:33:15.327 : en:00:33:15.327
00:37:25.285 : en:00:37:25.285
00:42:12.155 : en:00:42:12.155
00:46:13.354 : en:00:46:13.354
00:49:47.776 : en:00:49:47.776
00:56:34.182 : en:00:56:34.182
00:59:16.428 : en:00:59:16.428
01:03:44.446 : en:01:03:44.446
01:10:29.058 : en:01:10:29.058
01:15:10.005 : en:01:15:10.005
01:19:26.970 : en:01:19:26.970
01:23:14.615 : en:01:23:14.615
01:27:13.311 : en:01:27:13.311
01:32:23.955 : en:01:32:23.955
01:37:16.873 : en:01:37:16.873
01:42:46.118 : en:01:42:46.118
01:45:58.394 : en:01:45:58.394
Свернуть

"Скриншоты"
Изображение

Изображение

Изображение
Свернуть
_________________
Изображение
Не в сети
Профиль  
Начать новую темуОтветить на тему  [ 1 сообщение ] 
Вы не можете начинать темы
Вы не можете отвечать на сообщения
Вы не можете редактировать свои сообщения
Вы не можете удалять свои сообщения