Правила форума

  • В этом разделе создание новых тем Запрещено.
  • Для создания новых тем пользуйтесь Корневым разделом DVD и HD фильмы.
Начать новую темуОтветить на тему  [ 1 сообщение ] 
Торрент файл
Размер: 9.05 GB • Зарегистрирован: 1 год 2 месяца • Статус: Проверено
Скачан: 144 раза • Желающих скачать: 0 • Поблагодарили: 31 раз
 Раздают: 1  |  37 KB/s  ]   Качают: 0  |  0 KB/s  ] 
Сообщения
 Добавлено: 2015-09-22 05:50
DVD Release Group
Аватара пользователя
Стаж: 7 лет 1 месяц
Сообщений: 3561
Спасибок: 247482
Лайков: 1020
Супер Майк XXL

Magic Mike XXL


Изображение


Год выпуска: 2015
Страна: США
Жанр: Комедия, музыка, драма
Продолжительность: 01:55:17
Перевод: Профессиональный (полное дублирование)
Режиссер: Грегори Джейкобс
В ролях: Ченнинг Татум, Джо Манганьелло, Мэтт Бомер, Хуан Пьедраита, Шэрон Блэквуд, Элисон Фолк, Джош Диого, Кевин Нэш, Габриэль Иглесиас, Адам Родригес
Описание: Прошло три года после того, как Майк на пике своей популярности закончил карьеру стриптизера, а клуб «Короли Тампы» уже почти готов признать свое поражение. Но проделать это в своем стиле: готовясь «зажечь» Мёртл-Бич, они снова разделят сцену с легендарным Супер Майком. Дорога на последнее шоу проходит через Джеконсвилл и Саванну, где Майк и парни повстречают старых знакомых и заведут новых, а также выучат пару неизбитых движений, тряхнув при этом стариной.
Изображение
Sample:
http://sendfile.su/1156764
Качество: BDRip 1080p
Формат: MKV
Видео кодек: H.264
Аудио кодек: AC3, DTS
Видео: 1920x808 23.98fps 9346kbps
Аудио:
Аудио Rus: AC3 48kHz 6ch 384kbps
Аудио Eng: DTS 48kHz 6ch 1510kbps
"MediaInfo"
Формат : Matroska
Версия формата : Version 4 / Version 2
Размер файла : 9,05 Гбайт
Продолжительность : 1 ч. 55 м.
Общий поток : 11,2 Мбит/сек
Дата кодирования : UTC 2015-09-21 23:18:44
Программа кодирования : mkvmerge v8.2.0 ('World of Adventure') 64bit
Библиотека кодирования : libebml v1.3.1 + libmatroska v1.4.2

Видео
Идентификатор : 1
Формат : AVC
Формат/Информация : Advanced Video Codec
Профиль формата : High@L4.1
Параметр CABAC формата : Да
Параметр ReFrames формата : 5 кадров
Идентификатор кодека : V_MPEG4/ISO/AVC
Продолжительность : 1 ч. 55 м.
Битрейт : 9346 Кбит/сек
Ширина : 1920 пикселей
Высота : 808 пикселей
Соотношение сторон : 2,40:1
Режим частоты кадров : Постоянный
Частота кадров : 23,976 кадра/сек
Цветовое пространство : YUV
Субдискретизация насыщенности : 4:2:0
Битовая глубина : 8 бит
Тип развёртки : Прогрессивная
Бит/(Пиксели*Кадры) : 0.251
Размер потока : 7,35 Гбайт (81%)
Библиотека кодирования : x264 core 148 r2597 e86f3a1
Настройки программы : cabac=1 / ref=5 / deblock=1:0:0 / analyse=0x3:0x133 / me=umh / subme=7 / psy=1 / psy_rd=1.00:0.00 / mixed_ref=1 / me_range=16 / chroma_me=1 / trellis=1 / 8x8dct=1 / cqm=0 / deadzone=21,11 / fast_pskip=0 / chroma_qp_offset=-2 / threads=18 / lookahead_threads=3 / sliced_threads=0 / nr=0 / decimate=1 / interlaced=0 / bluray_compat=0 / constrained_intra=0 / bframes=3 / b_pyramid=2 / b_adapt=1 / b_bias=0 / direct=1 / weightb=1 / open_gop=0 / weightp=2 / keyint=250 / keyint_min=23 / scenecut=40 / intra_refresh=0 / rc_lookahead=40 / rc=2pass / mbtree=1 / bitrate=9346 / ratetol=1.0 / qcomp=0.60 / qpmin=0 / qpmax=69 / qpstep=4 / cplxblur=20.0 / qblur=0.5 / ip_ratio=1.40 / aq=1:1.00
Язык : English
Default : Да
Forced : Нет

Аудио #1
Идентификатор : 2
Формат : AC-3
Формат/Информация : Audio Coding 3
Расширение режима : CM (complete main)
Параметр Endianness формата : Big
Идентификатор кодека : A_AC3
Продолжительность : 1 ч. 55 м.
Вид битрейта : Постоянный
Битрейт : 384 Кбит/сек
Каналы : 6 каналов
Расположение каналов : Front: L C R, Side: L R, LFE
Частота : 48,0 КГц
Битовая глубина : 16 бит
Метод сжатия : С потерями
Размер потока : 317 Мбайт (3%)
Заголовок : [RUS] iTunes - DUB
Язык : Russian
Default : Да
Forced : Нет

Аудио #2
Идентификатор : 3
Формат : DTS
Формат/Информация : Digital Theater Systems
Режим : 16
Параметр Endianness формата : Big
Идентификатор кодека : A_DTS
Продолжительность : 1 ч. 55 м.
Вид битрейта : Постоянный
Битрейт : 1509 Кбит/сек
Каналы : 6 каналов
Расположение каналов : Front: L C R, Side: L R, LFE
Частота : 48,0 КГц
Битовая глубина : 24 бит
Метод сжатия : С потерями
Размер потока : 1,22 Гбайт (13%)
Язык : English
Default : Нет
Forced : Нет

Меню
00:00:00.000 : en:00:00:00.000
00:07:13.016 : en:00:07:13.016
00:09:48.963 : en:00:09:48.963
00:13:42.155 : en:00:13:42.155
00:17:40.851 : en:00:17:40.851
00:26:06.398 : en:00:26:06.398
00:33:33.553 : en:00:33:33.553
00:35:46.978 : en:00:35:46.978
00:40:59.666 : en:00:40:59.666
00:45:20.718 : en:00:45:20.718
00:47:46.489 : en:00:47:46.489
00:49:36.682 : en:00:49:36.682
00:55:17.189 : en:00:55:17.189
00:59:24.186 : en:00:59:24.186
01:03:31.933 : en:01:03:31.933
01:09:03.598 : en:01:09:03.598
01:15:04.166 : en:01:15:04.166
01:20:50.471 : en:01:20:50.471
01:25:05.976 : en:01:25:05.976
01:29:29.573 : en:01:29:29.573
01:31:53.133 : en:01:31:53.133
01:34:18.778 : en:01:34:18.778
01:37:09.866 : en:01:37:09.866
01:40:30.733 : en:01:40:30.733
01:44:10.244 : en:01:44:10.244
01:49:02.244 : en:01:49:02.244
01:51:01.113 : en:01:51:01.113
Свернуть

"Скриншоты"
Изображение
Изображение
Изображение
Свернуть
В сети
Профиль  
Начать новую темуОтветить на тему  [ 1 сообщение ] 
Вы не можете начинать темы
Вы не можете отвечать на сообщения
Вы не можете редактировать свои сообщения
Вы не можете удалять свои сообщения