Правила форума

  • В этом разделе создание новых тем Запрещено.
  • Для создания новых тем пользуйтесь Корневым разделом DVD и HD фильмы.
Начать новую темуОтветить на тему  [ Сообщений: 2 ] 
Торрент файл
Размер: 3.74 GB • Зарегистрирован: 5 лет 4 месяца • Статус: T Временный релиз
Скачан: 83 раза • Желающих скачать: 0 • Поблагодарили: 13 раз
 Раздают: 0  |  0 KB/s  ]   Качают: 0  |  0 KB/s  ] 
 Полного источника не было 2 года 10 месяцев 
Сообщения
 Добавлено: 2011-07-26 20:33
Книголюб
Аватара пользователя
Стаж: 7 лет 2 месяца
Сообщений: 2823
Спасибок: 48823
Лайков: 73
Супер / Super

Изображение


Год выпуска: 2010
Страна: США
Слоган: «Shut up, crime!»
Жанр: боевик, драма, комедия
Продолжительность: 01:36:05
Перевод: Любительский (одноголосый закадровый)

Режиссёр: Джеймс Ганн
В ролях: Рэйн Уилсон, Эллен Пэйдж, Лив Тайлер, Кевин Бейкон, Майкл Рукер, Андре Ройо, Шон Ганн, Стефен Блекхарт, Натан Филлион
Описание: Главный герой Фрэнк — обычный парень. После того как его жену соблазняет драгдилер, бедняга воображает себя супергероем, а отсутствие супер-способностей успешно компенсирует вооружившись гаечным ключом.
Рейтинг MPAA: Рейтинг R (Подростки до 17 лет допускаются на фильм только в сопровождении одного из родителей)
Изображение 6.389 351

Качество: BDRip
Формат: MKV
Видео кодек: H264 (AVC)
Аудио кодек: AC3 (Dolby Digital)
Видео: 4891 Kb/s, 1280x688. 0.232Bits/Pixel
Аудио : AC3, 448 kb/s (6 ch)

MediaInfo
General
Unique ID : 181007314319982648792148750591181817908 (0x882CBD9D37A5AA59A50838DE73E58834)
Complete name : J:\Супер.2010.L1.Rus.Eng.BluRay.x264.FireBit.mkv
Format : Matroska
File size : 3.74 GiB
Duration : 1h 36mn
Overall bit rate : 5 578 Kbps
Movie name : Супер / Super (2010) BDRip-AVC от FireBit - firebit.org
Encoded date : UTC 2011-07-24 07:07:48
Writing application : mkvmerge v2.3.0 ('Freak U') built on Sep 8 2008 18:32:16
Writing library : libebml v0.7.7 + libmatroska v0.8.1

Video
ID : 1
Format : AVC
Format/Info : Advanced Video Codec
Format profile : High@L4.1
Format settings, CABAC : Yes
Format settings, ReFrames : 5 frames
Codec ID : V_MPEG4/ISO/AVC
Duration : 1h 36mn
Bit rate : 4 891 Kbps
Width : 1 280 pixels
Height : 688 pixels
Display aspect ratio : 1.860
Frame rate : 23.976 fps
Color space : YUV
Chroma subsampling : 4:2:0
Bit depth : 8 bits
Scan type : Progressive
Bits/(Pixel*Frame) : 0.232
Stream size : 3.28 GiB (88%)
Title : http://firebit.org
Language : English

Audio #1
ID : 2
Format : AC-3
Format/Info : Audio Coding 3
Mode extension : CM (complete main)
Codec ID : A_AC3
Duration : 1h 36mn
Bit rate mode : Constant
Bit rate : 448 Kbps
Channel(s) : 6 channels
Channel positions : Front: L C R, Side: L R, LFE
Sampling rate : 48.0 KHz
Bit depth : 16 bits
Compression mode : Lossy
Delay relative to video : 31ms
Stream size : 308 MiB (8%)
Title : http://firebit.org
Language : Russian

Audio #2
ID : 3
Format : AC-3
Format/Info : Audio Coding 3
Mode extension : CM (complete main)
Codec ID : A_AC3
Duration : 1h 36mn
Bit rate mode : Constant
Bit rate : 128 Kbps
Channel(s) : 2 channels
Channel positions : Front: L R
Sampling rate : 48.0 KHz
Bit depth : 16 bits
Compression mode : Lossy
Delay relative to video : 31ms
Stream size : 87.9 MiB (2%)
Title : http://firebit.org
Language : English

Text #1
ID : 4
Format : UTF-8
Codec ID : S_TEXT/UTF8
Codec ID/Info : UTF-8 Plain Text
Title : http://firebit.org
Language : English

Text #2
ID : 5
Format : UTF-8
Codec ID : S_TEXT/UTF8
Codec ID/Info : UTF-8 Plain Text
Title : http://firebit.org
Language : English

Text #3
ID : 6
Format : UTF-8
Codec ID : S_TEXT/UTF8
Codec ID/Info : UTF-8 Plain Text
Title : http://firebit.org
Language : English

Свернуть

Скриншоты
Изображение
Изображение
Изображение
Свернуть
Не в сети
Профиль  
 Добавлено: 2011-07-26 22:36 (спустя 2 часа 3 минуты)
Руководитель релиз-группы
Аватара пользователя
Стаж: 9 лет 1 месяц
Возраст: 28
Сообщений: 4244
Спасибок: 31992
Лайков: 32
coldun, рипы в формате MKV (Matroska) видеобитрейтом более 4000 кбит/с релизим сюда.
_________________
«you failed because you had the wrong dream...»
Не в сети
Профиль  
Начать новую темуОтветить на тему  [ Сообщений: 2 ] 
Вы не можете начинать темы
Вы не можете отвечать на сообщения
Вы не можете редактировать свои сообщения
Вы не можете удалять свои сообщения