Правила форума

  • В этом разделе создание новых тем Запрещено.
  • Для создания новых тем пользуйтесь Корневым разделом DVD и HD фильмы.
Начать новую темуОтветить на тему  [ Сообщений: 4 ] 
Торрент файл
Размер: 6.78 GB • Зарегистрирован: 1 год 8 месяцев • Статус: T Временный релиз
Скачан: 205 раз • Желающих скачать: 0 • Поблагодарили: 32 раза
 Раздают: 5  |  0 KB/s  ]   Качают: 0  |  0 KB/s  ] 
Сообщения
 Добавлено: 2015-03-29 01:04
Аватара пользователя
Стаж: 8 лет 11 месяцев
Сообщений: 91
Спасибок: 65
Лайков: 7
Супернянь / Babysitting

Изображение


Год выпуска: 2014
Страна: Франция
Жанр: комедия
Продолжительность: 1:24:04
Перевод: Профессиональный (дубляж) Чистый звук

Режиссёр: Николас Бенаму, Филипп Лашо
В ролях: Филипп Лашо
Алис Давид
Венсан Дезанья
Тарек Будали
Жюльен Аррути
Грегуар Людиг
Давид Марсе
Жерар Жюньо
Клотильда Куро
Филипп Дюкен
Описание: Клэр и Марк уезжают на все выходные, оставив своего сына под присмотром «хорошего парня» Фрэнка. На следующее утро парочку будит звонок полицейского, который сообщает, что их дом перевернут верх дном, а сын исчез! На месте происшествия полиция находит камеру, на которой запечатлены все события предыдущей ночи. Только посмотрев видео родители смогут узнать куда исчез их сын и что случилось в эту ночь… когда Фрэнк праздновал 30-летие
Изображение

Качество: BDRip (1080p)
Формат: mkv
Видео кодек: MPEG-4 AVC, 9655 Kb/s, 1920x1040
Аудио #1: Russian: AC3, 384 kb/s (2 ch) / French: DTS, 1509 kb/s (6 ch) [Профессиональный (дубляж)]
MediaInfo
Общее
Уникальный идентификатор : 226950180910021222797024126234576772346 (0xAABD03D271ABCD88A9736985CFCB5CFA)Уникальный идентификатор : 226950180910021222797024126234576772346 (0xAABD03D271ABCD88A9736985CFCB5CFA)
Полное имя : D:\Downloads\Supern9n.2014.D.BDRip.1080p.mkvПолное имя : D:\Downloads\Supern9n.2014.D.BDRip.1080p.mkv
Формат : MatroskaФормат : Matroska
Версия формата : Version 4 / Version 2Версия формата : Version 4 / Version 2
Размер файла : 6,78 ГбайтРазмер файла : 6,78 Гбайт
Продолжительность : 1 ч. 24 м.Продолжительность : 1 ч. 24 м.
Общий поток : 11,5 Мбит/секОбщий поток : 11,5 Мбит/сек
Дата кодирования : UTC 2014-12-01 23:37:16Дата кодирования : UTC 2014-12-01 23:37:16
Программа кодирования : mkvmerge v6.9.1 ('Blue Panther') 64bit built on Apr 18 2014 18:23:38Программа кодирования : mkvmerge v6.9.1 ('Blue Panther') 64bit built on Apr 18 2014 18:23:38
Библиотека кодирования : libebml v1.3.0 + libmatroska v1.4.1Библиотека кодирования : libebml v1.3.0 + libmatroska v1.4.1

Видео
Идентификатор : 1Идентификатор : 1
Формат : AVCФормат : AVC
Формат/Информация : Advanced Video CodecФормат/Информация : Advanced Video Codec
Профиль формата : High@L4.1Профиль формата : High@L4.1
Параметр CABAC формата : ДаПараметр CABAC формата : Да
Параметр ReFrames формата : 4 кадраПараметр ReFrames формата : 4 кадра
Идентификатор кодека : V_MPEG4/ISO/AVCИдентификатор кодека : V_MPEG4/ISO/AVC
Продолжительность : 1 ч. 24 м.Продолжительность : 1 ч. 24 м.
Битрейт : 9655 Кбит/секБитрейт : 9655 Кбит/сек
Ширина : 1920 пикселейШирина : 1920 пикселей
Высота : 1040 пикселейВысота : 1040 пикселей
Соотношение сторон : 1,85:1Соотношение сторон : 1,85:1
Режим частоты кадров : ПостоянныйРежим частоты кадров : Постоянный
Частота кадров : 23,976 кадра/секЧастота кадров : 23,976 кадра/сек
Цветовое пространство : YUVЦветовое пространство : YUV
Субдискретизация насыщенности : 4:2:0Субдискретизация насыщенности : 4:2:0
Битовая глубина : 8 битБитовая глубина : 8 бит
Тип развёртки : ПрогрессивнаяТип развёртки : Прогрессивная
Бит/(Пиксели*Кадры) : 0.202Бит/(Пиксели*Кадры) : 0.202
Размер потока : 5,53 Гбайт (82%)Размер потока : 5,53 Гбайт (82%)
Библиотека кодирования : x264 core 142 r2453 ea0ca51Библиотека кодирования : x264 core 142 r2453 ea0ca51
Настройки программы : cabac=1 / ref=4 / deblock=1:0:0 / analyse=0x3:0x133 / me=umh / subme=8 / psy=1 / psy_rd=1.00:0.00 / mixed_ref=1 / me_range=16 / chroma_me=1 / trellis=1 / 8x8dct=1 / cqm=0 / deadzone=21,11 / fast_pskip=0 / chroma_qp_offset=-2 / threads=12 / lookahead_threads=2 / sliced_threads=0 / nr=0 / decimate=1 / interlaced=0 / bluray_compat=0 / constrained_intra=0 / bframes=3 / b_pyramid=2 / b_adapt=2 / b_bias=0 / direct=3 / weightb=1 / open_gop=0 / weightp=2 / keyint=250 / keyint_min=23 / scenecut=40 / intra_refresh=0 / rc_lookahead=50 / rc=2pass / mbtree=1 / bitrate=9655 / ratetol=1.0 / qcomp=0.60 / qpmin=0 / qpmax=69 / qpstep=4 / cplxblur=20.0 / qblur=0.5 / ip_ratio=1.40 / aq=1:1.00Настройки программы : cabac=1 / ref=4 / deblock=1:0:0 / analyse=0x3:0x133 / me=umh / subme=8 / psy=1 / psy_rd=1.00:0.00 / mixed_ref=1 / me_range=16 / chroma_me=1 / trellis=1 / 8x8dct=1 / cqm=0 / deadzone=21,11 / fast_pskip=0 / chroma_qp_offset=-2 / threads=12 / lookahead_threads=2 / sliced_threads=0 / nr=0 / decimate=1 / interlaced=0 / bluray_compat=0 / constrained_intra=0 / bframes=3 / b_pyramid=2 / b_adapt=2 / b_bias=0 / direct=3 / weightb=1 / open_gop=0 / weightp=2 / keyint=250 / keyint_min=23 / scenecut=40 / intra_refresh=0 / rc_lookahead=50 / rc=2pass / mbtree=1 / bitrate=9655 / ratetol=1.0 / qcomp=0.60 / qpmin=0 / qpmax=69 / qpstep=4 / cplxblur=20.0 / qblur=0.5 / ip_ratio=1.40 / aq=1:1.00
Язык : EnglishЯзык : English
Default : ДаDefault : Да
Forced : НетForced : Нет

Аудио #1
Идентификатор : 2Идентификатор : 2
Формат : AC-3Формат : AC-3
Формат/Информация : Audio Coding 3Формат/Информация : Audio Coding 3
Расширение режима : CM (complete main)Расширение режима : CM (complete main)
Параметр Endianness формата : BigПараметр Endianness формата : Big
Идентификатор кодека : A_AC3Идентификатор кодека : A_AC3
Продолжительность : 1 ч. 24 м.Продолжительность : 1 ч. 24 м.
Вид битрейта : ПостоянныйВид битрейта : Постоянный
Битрейт : 384 Кбит/секБитрейт : 384 Кбит/сек
Каналы : 2 каналаКаналы : 2 канала
Расположение каналов : Front: L RРасположение каналов : Front: L R
Частота : 48,0 КГцЧастота : 48,0 КГц
Битовая глубина : 16 битБитовая глубина : 16 бит
Метод сжатия : С потерямиМетод сжатия : С потерями
Размер потока : 231 Мбайт (3%)Размер потока : 231 Мбайт (3%)
Default : ДаDefault : Да
Forced : НетForced : Нет

Аудио #2
Идентификатор : 3Идентификатор : 3
Формат : DTSФормат : DTS
Формат/Информация : Digital Theater SystemsФормат/Информация : Digital Theater Systems
Режим : 16Режим : 16
Параметр Endianness формата : BigПараметр Endianness формата : Big
Идентификатор кодека : A_DTSИдентификатор кодека : A_DTS
Продолжительность : 1 ч. 24 м.Продолжительность : 1 ч. 24 м.
Вид битрейта : ПостоянныйВид битрейта : Постоянный
Битрейт : 1509 Кбит/секБитрейт : 1509 Кбит/сек
Каналы : 6 каналовКаналы : 6 каналов
Расположение каналов : Front: L C R, Side: L R, LFEРасположение каналов : Front: L C R, Side: L R, LFE
Частота : 48,0 КГцЧастота : 48,0 КГц
Битовая глубина : 24 битБитовая глубина : 24 бит
Метод сжатия : С потерямиМетод сжатия : С потерями
Размер потока : 907 Мбайт (13%)Размер потока : 907 Мбайт (13%)
Заголовок : FrenchЗаголовок : French
Язык : FrenchЯзык : French
Default : НетDefault : Нет
Forced : НетForced : Нет

Меню
00:00:00.000 : en:00:00:00.00000:00:00.000 : en:00:00:00.000
00:05:06.389 : en:00:05:06.38900:05:06.389 : en:00:05:06.389
00:08:33.763 : en:00:08:33.76300:08:33.763 : en:00:08:33.763
00:12:35.129 : en:00:12:35.12900:12:35.129 : en:00:12:35.129
00:16:14.223 : en:00:16:14.22300:16:14.223 : en:00:16:14.223
00:19:16.197 : en:00:19:16.19700:19:16.197 : en:00:19:16.197
00:25:00.708 : en:00:25:00.70800:25:00.708 : en:00:25:00.708
00:30:43.800 : en:00:30:43.80000:30:43.800 : en:00:30:43.800
00:34:40.620 : en:00:34:40.62000:34:40.620 : en:00:34:40.620
00:39:10.223 : en:00:39:10.22300:39:10.223 : en:00:39:10.223
00:44:48.519 : en:00:44:48.51900:44:48.519 : en:00:44:48.519
00:48:36.622 : en:00:48:36.62200:48:36.622 : en:00:48:36.622
00:52:12.379 : en:00:52:12.37900:52:12.379 : en:00:52:12.379
00:57:19.853 : en:00:57:19.85300:57:19.853 : en:00:57:19.853
00:59:41.745 : en:00:59:41.74500:59:41.745 : en:00:59:41.745
01:02:33.041 : en:01:02:33.04101:02:33.041 : en:01:02:33.041
01:08:12.672 : en:01:08:12.67201:08:12.672 : en:01:08:12.672
01:12:18.251 : en:01:12:18.25101:12:18.251 : en:01:12:18.251
01:15:11.674 : en:01:15:11.67401:15:11.674 : en:01:15:11.674
01:20:09.680 : en:01:20:09.68001:20:09.680 : en:01:20:09.680

Свернуть

Скриншоты
Изображение
Изображение
Изображение
Свернуть


Добавлено спустя 2 минуты:
Первая раздача в кино разделе и вторая раздача в жизни!) так что если что, то не пинайте и скажите что исправить - все сделаю)
 bazanoff нравится это.
Не в сети
Профиль  
 Добавлено: 2015-03-30 07:37 (спустя 1 день 6 часов)
Аватара пользователя
Стаж: 5 лет 1 месяц
Сообщений: 159
Лайков: 2
:bra_vo:
Не в сети
Профиль  
 Добавлено: 2015-03-30 17:02 (спустя 9 часов)
Аватара пользователя
Стаж: 8 лет 6 месяцев
Сообщений: 465
Спасибок: 27
Лайков: 6
Хочу такую кепку! :-D
Не в сети
Профиль  
 Добавлено: 2015-03-31 15:29 (спустя 22 часа)
Стаж: 5 лет 3 месяца
Сообщений: 150
Лайков: 1
:co_ol:
Не в сети
Профиль  
Начать новую темуОтветить на тему  [ Сообщений: 4 ] 
Вы не можете начинать темы
Вы не можете отвечать на сообщения
Вы не можете редактировать свои сообщения
Вы не можете удалять свои сообщения