Правила форума

  • В этом разделе создание новых тем Запрещено.
  • Для создания новых тем пользуйтесь Корневым разделом DVD и HD фильмы.
Начать новую темуОтветить на тему  [ 1 сообщение ] 
Торрент файл
Размер: 7.02 GB • Зарегистрирован: 3 года 10 месяцев • Статус: Проверено
Скачан: 47 раз • Желающих скачать: 0 • Поблагодарили: 13 раз
 Раздают: 0  |  0 KB/s  ]   Качают: 0  |  0 KB/s  ] 
 Полного источника не было 9 месяцев 
Сообщения
 Добавлено: 2013-02-03 16:03
Модератор
Аватара пользователя
Стаж: 6 лет 10 месяцев
Возраст: 33
Сообщений: 5908
Спасибок: 61265
Лайков: 3540
Изображение

Суррогат
The Sessions


Год выпуска: 2012
Страна: США
Слоган: «THE FESTIVAL HIT OF THE YEAR!»
Жанр: драма
Продолжительность: 01:35:07
Перевод: Профессиональный (многоголосый, закадровый) Лицензия
Режиссер: Бен Луин
Сценарий: Бен Луин
Продюсер: Джуди Левайн, Бен Луин, Стефен Немет, Даг Блейк, Джулиус Колман
Оператор: Джефри Симпсон
Композитор: Марко Белтрами
В ролях: Джон Хоукс, Хелен Хант, Уильям Х. Мэйси, Мун Бладгуд, Анника Маркс, Ри Перлман, Адам Аркин, У. Эрл Браун, Робин Вайгерт, Блейк Линдсли, Ло Минг, Расти Швиммер
Бюджет: $1 000 000
Сборы в США: $5 887 695
Сборы в мире: $9 023 582
Мировая премьера: 23 января 2012
Релиз на DVD: 7 марта 2013, «Двадцатый Век Фокс СНГ»
Описание: Тридцатишестилетний Марк О`Брайен, подключенный к аппарату для искусственного дыхания, решает, что больше не хочет быть девственником.

Изображение User Rating: 7.074 (97)
Изображение User Rating: 7.30 (5 534)
MPAA: R - Лицам до 17 лет обязательно присутствие взрослого
Раздача группы: Изображение
Изображение
Качество: BDRip, 1080p
Формат: MKV
Видео: AVC; 1920x1040 (16:9); 8097 Kbps; 23,976 fps; 0,169 bit/pixel
Аудио №1: русский; DTS; 755 Kbps; CBR; 6 ch; 24 bit
Аудио №2: DTS; 1510 Kbps; CBR; 6 ch; 24 bit

Субтитры №1: русские
Субтитры №2: украинские
Субтитры №3:

mediainfo
General
Unique ID : 211791546523631595354776443089461412985 (0x9F559171BD9AA45CB31AF00A7CCF8479)
Complete name : Surrogat.2012.P.BDRip.1080p.IRONCLUB.mkv
Format : Matroska
Format version : Version 2
File size : 7.02 GiB
Duration : 1h 35mn
Overall bit rate : 10.6 Mbps
Movie name : IRONCLUB
Encoded date : UTC 2013-02-03 10:36:38
Writing application : mkvmerge v5.2.0 ('I can't explain') built on Dec 18 2011 18:12:03
Writing library : libebml v1.2.3 + libmatroska v1.3.0

Video
ID : 1
Format : AVC
Format/Info : Advanced Video Codec
Format profile : High@L4.1
Format settings, CABAC : Yes
Format settings, ReFrames : 4 frames
Codec ID : V_MPEG4/ISO/AVC
Duration : 1h 35mn
Bit rate : 8 320 Kbps
Width : 1 920 pixels
Height : 1 040 pixels
Display aspect ratio : 1.85:1
Frame rate : 23.976 fps
Color space : YUV
Chroma subsampling : 4:2:0
Bit depth : 8 bits
Scan type : Progressive
Bits/(Pixel*Frame) : 0.174
Stream size : 5.38 GiB (77%)
Title : The Sessions 2012
Writing library : x264 core 125 r2208 d9d2288
Encoding settings : cabac=1 / ref=4 / deblock=1:1:1 / analyse=0x3:0x113 / me=umh / subme=10 / psy=1 / psy_rd=1.05:0.10 / mixed_ref=1 / me_range=48 / chroma_me=1 / trellis=2 / 8x8dct=1 / cqm=0 / deadzone=21,11 / fast_pskip=0 / chroma_qp_offset=-2 / threads=12 / lookahead_threads=2 / sliced_threads=0 / nr=0 / decimate=1 / interlaced=0 / bluray_compat=0 / constrained_intra=0 / bframes=6 / b_pyramid=2 / b_adapt=2 / b_bias=0 / direct=3 / weightb=1 / open_gop=0 / weightp=2 / keyint=250 / keyint_min=23 / scenecut=40 / intra_refresh=0 / rc=2pass / mbtree=0 / bitrate=8320 / ratetol=2.0 / qcomp=0.70 / qpmin=0 / qpmax=69 / qpstep=4 / cplxblur=20.0 / qblur=0.5 / ip_ratio=1.40 / pb_ratio=1.30 / aq=2:1.00
Language : English
Default : Yes
Forced : Yes

Audio #1
ID : 2
Format : DTS
Format/Info : Digital Theater Systems
Codec ID : A_DTS
Duration : 1h 35mn
Bit rate mode : Constant
Bit rate : 755 Kbps
Channel(s) : 6 channels
Channel positions : Front: L C R, Side: L R, LFE
Sampling rate : 48.0 KHz
Bit depth : 24 bits
Compression mode : Lossy
Stream size : 513 MiB (7%)
Title : DTS 5.1 @ 768 kbps - MVO, BD EUR
Language : Russian
Default : Yes
Forced : Yes

Audio #2
ID : 3
Format : DTS
Format/Info : Digital Theater Systems
Codec ID : A_DTS
Duration : 1h 35mn
Bit rate mode : Constant
Bit rate : 1 510 Kbps
Channel(s) : 6 channels
Channel positions : Front: L C R, Side: L R, LFE
Sampling rate : 48.0 KHz
Bit depth : 24 bits
Compression mode : Lossy
Stream size : 1.00 GiB (14%)
Title : DTS 5.1 @ 1536 kbps
Language : English
Default : No
Forced : No

Text #1
ID : 4
Format : UTF-8
Codec ID : S_TEXT/UTF8
Codec ID/Info : UTF-8 Plain Text
Language : Russian
Default : No
Forced : No

Text #2
ID : 5
Format : UTF-8
Codec ID : S_TEXT/UTF8
Codec ID/Info : UTF-8 Plain Text
Language : Ukrainian
Default : No
Forced : No

Text #3
ID : 6
Format : UTF-8
Codec ID : S_TEXT/UTF8
Codec ID/Info : UTF-8 Plain Text
Language : English
Default : No
Forced : No

Menu
00:00:00.000 : en:Chapter 01
00:03:45.225 : en:Chapter 02
00:08:18.372 : en:Chapter 03
00:13:29.016 : en:Chapter 04
00:17:04.982 : en:Chapter 05
00:19:21.243 : en:Chapter 06
00:23:21.233 : en:Chapter 07
00:27:56.508 : en:Chapter 08
00:33:08.486 : en:Chapter 09
00:37:57.400 : en:Chapter 10
00:41:44.210 : en:Chapter 11
00:45:08.747 : en:Chapter 12
00:50:01.164 : en:Chapter 13
00:53:56.858 : en:Chapter 14
00:55:28.616 : en:Chapter 15
01:00:20.908 : en:Chapter 16
01:03:12.580 : en:Chapter 17
01:06:56.470 : en:Chapter 18
01:09:34.753 : en:Chapter 19
01:10:26.597 : en:Chapter 20
01:13:15.974 : en:Chapter 21
01:21:01.273 : en:Chapter 22
01:27:06.304 : en:Chapter 23
01:30:39.642 : en:Chapter 24
Свернуть
Скриншоты

Изображение
Изображение
Изображение
Свернуть
_________________
ИзображениеИзображение Изображение
Изображение
 tany1984 и di-ys1 нравится это.
Не в сети
Профиль  
Начать новую темуОтветить на тему  [ 1 сообщение ] 
Вы не можете начинать темы
Вы не можете отвечать на сообщения
Вы не можете редактировать свои сообщения
Вы не можете удалять свои сообщения