Правила форума

  • В этом разделе создание новых тем Запрещено.
  • Для создания новых тем пользуйтесь Корневым разделом DVD и HD фильмы.
Начать новую темуОтветить на тему  [ Сообщений: 6 ] 
Торрент файл
Размер: 4.61 GB • Зарегистрирован: 4 года 5 месяцев • Статус: Проверено
Скачан: 159 раз • Желающих скачать: 0 • Поблагодарили: 26 раз
 Раздают: 0  |  0 KB/s  ]   Качают: 1  |  0 KB/s  ] 
 Полного источника не было 18 дней 
Сообщения
 Добавлено: 2012-07-01 13:06
Top-releaser
Аватара пользователя
Стаж: 6 лет 7 месяцев
Сообщений: 2078
Спасибок: 3230
Лайков: 9
Суррогаты / Surrogates

Изображение


Год выпуска: 2009
Страна: США
Жанр: боевик, фантастика, триллер
Продолжительность: 01:28:36
Перевод: Профессиональный (полное дублирование)

Режиссёр: Джонатан Мостоу
В ролях: Брюс Уиллис, Рада Митчел, Розамунд Пайк, Борис Коджо, Джеймс Джинти, Джеймс Кромуэлл, Винг Рэймс, Джек Ноузуорти, Девин Рэтрей, Майкл Кудиц
Описание: Действие разворачивается в будущем, в 2057 году, — когда люди практически перестанут общаться между собой и полностью возложат эту функцию на плечи роботов-заменителей. Они сильнее, моложе, привлекательнее своих обладателей и даже могут быть другого пола. Но находится террорист, начинающий уничтожать идеальных андроидов. Полицейскому Харви Гриру предстоит узнать, какие причины движут злоумышленником, лишающим людей их марионеток, технически и физически совершенных.

Раздача группы: Изображение

Качество: BDRip
Формат: MKV
Видео кодек: H.264
Аудио кодек: AC3, DTS
Видео: 1280x534, 5364 kbps, 23.976 fps
Аудио #1: Русский AC3 5.1, 48 KHz, 384 kbps
Аудио #2: Английский DTS 5.1, 48 KHz, 1536 kbps
Аудио #3: Английский AC3 2.0, 48 KHz, 192 kbps (комментарии режиссёра)
Субтитры: Русские (полные), Русские (надписи и пр.), Английские

MediaInfo
Общее
Уникальный идентификатор : 225407134963283230694455683187154594219 (0xA993D5C87C8F9AA295B656A0C44FA9AB)
Полное имя : D:\Суррогаты\Surrogates.2009.BD.Rip.720p.h264.Rus.Eng.Commentary.mkv
Формат : Matroska
Версия формата : Version 2
Размер файла : 4,61 Гбайт
Продолжительность : 1 ч. 28 м.
Общий поток : 7451 Кбит/сек
Дата кодирования : UTC 2009-12-25 20:05:43
Программа кодирования : mkvmerge v3.0.0 ('Hang up your Hang-Ups') built on Dec 12 2009 15:20:35
Библиотека кодирования : libebml v0.7.9 + libmatroska v0.8.1

Видео
Идентификатор : 1
Формат : AVC
Формат/Информация : Advanced Video Codec
Профиль формата : High@L4.1
Параметр CABAC формата : Да
Параметр ReFrames формата : 10 кадров
Идентификатор кодека : V_MPEG4/ISO/AVC
Продолжительность : 1 ч. 28 м.
Битрейт : 5364 Кбит/сек
Ширина : 1280 пикселей
Высота : 534 пикселя
Соотношение сторон : 2,40:1
Частота кадров : 23,976 кадра/сек
Цветовое пространство : YUV
Субдискретизация насыщенности : 4:2:0
Битовая глубина : 8 бит
Тип развёртки : Прогрессивная
Бит/(Пиксели*Кадры) : 0.327
Размер потока : 3,23 Гбайт (70%)
Библиотека кодирования : x264 core 68 r1179M 96e2229
Настройки программы : cabac=1 / ref=10 / deblock=1:-3:-3 / analyse=0x3:0x133 / me=umh / subme=9 / psy_rd=1.0:0.0 / mixed_ref=1 / me_range=48 / chroma_me=1 / trellis=2 / 8x8dct=1 / cqm=0 / deadzone=21,11 / chroma_qp_offset=-2 / threads=12 / nr=0 / decimate=1 / mbaff=0 / bframes=4 / b_pyramid=1 / b_adapt=2 / b_bias=0 / direct=1 / wpredb=1 / keyint=250 / keyint_min=25 / scenecut=40 / rc=2pass / bitrate=5364 / ratetol=1.0 / qcomp=0.60 / qpmin=10 / qpmax=51 / qpstep=4 / cplxblur=20.0 / qblur=0.5 / vbv_maxrate=50000 / vbv_bufsize=50000 / ip_ratio=1.40 / pb_ratio=1.30 / aq=1:0.80
Язык : English
Default : Да
Forced : Нет

Аудио #1
Идентификатор : 2
Формат : AC-3
Формат/Информация : Audio Coding 3
Расширение режима : CM (complete main)
Параметр Endianness формата : Big
Идентификатор кодека : A_AC3
Продолжительность : 1 ч. 28 м.
Вид битрейта : Постоянный
Битрейт : 384 Кбит/сек
Каналы : 6 каналов
Расположение каналов : Front: L C R, Side: L R, LFE
Частота : 48,0 КГц
Битовая глубина : 16 бит
Метод сжатия : С потерями
Размер потока : 243 Мбайт (5%)
Заголовок : AC3 5.1 384 kbps
Язык : Russian
Default : Да
Forced : Нет

Аудио #2
Идентификатор : 3
Формат : DTS
Формат/Информация : Digital Theater Systems
Идентификатор кодека : A_DTS
Продолжительность : 1 ч. 28 м.
Вид битрейта : Постоянный
Битрейт : 1510 Кбит/сек
Каналы : 6 каналов
Расположение каналов : Front: L C R, Side: L R, LFE
Частота : 48,0 КГц
Битовая глубина : 24 бит
Метод сжатия : С потерями
Размер потока : 957 Мбайт (20%)
Заголовок : DTS 5.1 1536 kbps
Язык : English
Default : Нет
Forced : Нет

Аудио #3
Идентификатор : 4
Формат : AC-3
Формат/Информация : Audio Coding 3
Расширение режима : CM (complete main)
Параметр Endianness формата : Big
Идентификатор кодека : A_AC3
Продолжительность : 1 ч. 28 м.
Вид битрейта : Постоянный
Битрейт : 192 Кбит/сек
Каналы : 2 канала
Расположение каналов : Front: L R
Частота : 48,0 КГц
Битовая глубина : 16 бит
Метод сжатия : С потерями
Размер потока : 122 Мбайт (3%)
Заголовок : Commentary with Director AC3 2.0 192 kbps
Язык : English
Default : Нет
Forced : Нет

Текст #1
Идентификатор : 5
Формат : UTF-8
Идентификатор кодека : S_TEXT/UTF8
Идентификатор кодека/Информация : UTF-8 Plain Text
Язык : Russian
Default : Нет
Forced : Нет

Текст #2
Идентификатор : 6
Формат : UTF-8
Идентификатор кодека : S_TEXT/UTF8
Идентификатор кодека/Информация : UTF-8 Plain Text
Язык : English
Default : Нет
Forced : Нет

Текст #3
Идентификатор : 7
Формат : UTF-8
Идентификатор кодека : S_TEXT/UTF8
Идентификатор кодека/Информация : UTF-8 Plain Text
Заголовок : Tol'ko nadpisi
Язык : Russian
Default : Да
Forced : Нет
Свернуть
Скриншоты
Изображение

Изображение

Изображение

Изображение
Свернуть
Не в сети
Профиль  
 Добавлено: 2012-07-07 20:20 (спустя 6 дней)
Games Release Group
Аватара пользователя
Стаж: 5 лет 10 месяцев
Возраст: 21
Сообщений: 928
Спасибок: 11158
Лайков: 26
как фильм?
_________________
Изображение
Не в сети
Профиль  
 Добавлено: 2012-07-07 20:59 (спустя 38 минут)
Top-releaser
Аватара пользователя
Стаж: 6 лет 7 месяцев
Сообщений: 2078
Спасибок: 3230
Лайков: 9
DMITRIY WAYNE
нормальный боевик про ближайшее будущее
Не в сети
Профиль  
 Добавлено: 2012-11-05 23:05 (спустя 3 месяца 29 дней)
Аватара пользователя
Стаж: 9 лет 1 месяц
Сообщений: 81
Спасибок: 11
;)
Не в сети
Профиль  
 Добавлено: 2013-11-20 14:39 (спустя 1 год)
Аватара пользователя
Стаж: 8 лет 1 месяц
Возраст: 22
Сообщений: 291
Спасибок: 408
Лайков: 6
раздайте плиз скорость 20 кб в сек
Не в сети
Профиль  
 Добавлено: 2016-10-28 11:56 (спустя 2 года 11 месяцев)
Аватара пользователя
Стаж: 6 лет 6 месяцев
Возраст: 28
Сообщений: 27
Лайков: 1
скорости пжл
Не в сети
Профиль  
Начать новую темуОтветить на тему  [ Сообщений: 6 ] 
Вы не можете начинать темы
Вы не можете отвечать на сообщения
Вы не можете редактировать свои сообщения
Вы не можете удалять свои сообщения