Правила форума

  • В этом разделе создание новых тем Запрещено.
  • Для создания новых тем пользуйтесь Корневым разделом DVD и HD фильмы.
Начать новую темуОтветить на тему  [ 1 сообщение ] 
Торрент файл
Размер: 2.4 GB • Зарегистрирован: 4 года 1 месяц • Статус: Проверено
Скачан: 4 раза • Желающих скачать: 0 • Поблагодарили: 2 раза
 Раздают: 0  |  0 KB/s  ]   Качают: 0  |  0 KB/s  ] 
 Полного источника не было 3 года 2 месяца 
Сообщения
 Добавлено: 2012-10-16 15:06
Книголюб
Аватара пользователя
Стаж: 7 лет 2 месяца
Сообщений: 2823
Спасибок: 48823
Лайков: 73
Свадьба белой ночью
Brudguminn

Изображение


Год выпуска: 2007
Страна: Исландия
Жанр: драма
Продолжительность: 01:33:16
Перевод: Профессиональный (многоголосый закадровый)

Режиссёр: Бальтасар Кормакур
В ролях: Хилмир Снаэр Гуднасон, Маргрет Вильялмсдоттир, Лофи Эльясдоттир, Тростур Лео Гуннарссон, Йохан Сигуроарсон, Олафур Дарри Олафссон, Илмур Кристьянсдоттир, Олафур Эгилссон, Карл Гудмундсон
Описание: Возможно, темной ночью это не так заметно, а вот под белым ночным небом Исландии становится очевидно: жених и невеста совсем по-разному волнуются перед бракосочетанием. И если девушка беспокоится о платье и прическе, то старый профессор совершенно не знает, что делать с долгами и родителями невесты, которые не в восторге от зятя-ровесника. Да и предыдущая жена не оставила новобрачному иллюзий по поводу семейной жизни. Так зачем жениться?
Рейтинг MPAA: Рейтинг 18+ (зрителям, достигшим 18 лет )
Мировая премьера: 18 января 2008
Премьера в России: 14 января 2010, «Русский репортаж»
Изображение 6.928 332

Качество: HDTVRip 720p
Формат: DVD Video
Видео кодек: MPEG2
Аудио кодек: AC3 (Dolby Digital)
Видео: 1280x720 25fps 3 500 Kbps 0.152Bits/Pixel
Аудио #1: 48000Hz stereo 3072kbps [Профессиональный (многоголосый закадровый)]
MediaInfo
General
Unique ID : 281835214708784368060956736418689413087 (0xD4077CE992C2542E983E4D6D9D196FDF)
Complete name : K:\Torrent\Svadba.beloi.nochju. .mkv
Format : Matroska
Format version : Version 2
File size : 2.40 GiB
Duration : 1h 33mn
Overall bit rate : 3 682 Kbps
Writing application : Lavf53.18.0
Writing library : Lavf53.18.0

Video
ID : 1
Format : AVC
Format/Info : Advanced Video Codec
Format profile : Main@L3.1
Format settings, CABAC : Yes
Format settings, ReFrames : 4 frames
Codec ID : V_MPEG4/ISO/AVC
Duration : 1h 33mn
Bit rate : 3 500 Kbps
Width : 1 280 pixels
Height : 720 pixels
Display aspect ratio : 16:9
Frame rate mode : Variable
Frame rate : 25.000 fps
Color space : YUV
Chroma subsampling : 4:2:0
Bit depth : 8 bits
Scan type : Progressive
Bits/(Pixel*Frame) : 0.152
Stream size : 2.23 GiB (93%)
Writing library : x264 core 119
Encoding settings : cabac=1 / ref=1 / deblock=1:0:0 / analyse=0x1:0x1 / me=dia / subme=1 / psy=1 / psy_rd=1.00:0.00 / mixed_ref=0 / me_range=16 / chroma_me=1 / trellis=0 / 8x8dct=0 / cqm=0 / deadzone=21,11 / fast_pskip=1 / chroma_qp_offset=0 / threads=2 / sliced_threads=0 / nr=0 / decimate=1 / interlaced=0 / bluray_compat=0 / constrained_intra=0 / bframes=3 / b_pyramid=2 / b_adapt=1 / b_bias=0 / direct=1 / weightb=1 / open_gop=0 / weightp=1 / keyint=250 / keyint_min=25 / scenecut=40 / intra_refresh=0 / rc=abr / mbtree=0 / bitrate=3500 / ratetol=1.0 / qcomp=0.60 / qpmin=0 / qpmax=69 / qpstep=4 / ip_ratio=1.40 / pb_ratio=1.30 / aq=1:1.00
Default : Yes
Forced : No

Audio
ID : 2
Format : AC-3
Format/Info : Audio Coding 3
Mode extension : CM (complete main)
Codec ID : A_AC3
Duration : 1h 33mn
Bit rate mode : Constant
Bit rate : 192 Kbps
Channel(s) : 2 channels
Channel positions : Front: L R
Sampling rate : 48.0 KHz
Bit depth : 16 bits
Compression mode : Lossy
Stream size : 128 MiB (5%)
Language : Russian
Default : Yes
Forced : No


Свернуть

Скриншоты
Изображение
Изображение
Изображение
Свернуть
Не в сети
Профиль  
Начать новую темуОтветить на тему  [ 1 сообщение ] 
Вы не можете начинать темы
Вы не можете отвечать на сообщения
Вы не можете редактировать свои сообщения
Вы не можете удалять свои сообщения