Правила форума

  • В этом разделе создание новых тем Запрещено.
  • Для создания новых тем пользуйтесь Корневым разделом DVD и HD фильмы.
Начать новую темуОтветить на тему  [ Сообщений: 2 ] 
Торрент файл
Размер: 4.67 GB • Зарегистрирован: 4 года 6 месяцев • Статус: Проверено
Скачан: 193 раза • Желающих скачать: 0 • Поблагодарили: 30 раз
 Раздают: 0  |  0 KB/s  ]   Качают: 0  |  0 KB/s  ] 
 Полного источника не было 16 дней 
Сообщения
 Добавлено: 2012-06-05 21:32
Модератор
Аватара пользователя
Стаж: 6 лет 10 месяцев
Возраст: 33
Сообщений: 5908
Спасибок: 61265
Лайков: 3540
Изображение

Свадебный разгром / A Few Best Men


Год выпуска: 2011
Страна: США, Великобритания, Австралия
Слоган: «Этот мальчишник вам не по зубам!»
Жанр: комедия
Продолжительность: 01:36:32
Перевод: Профессиональный (полное дублирование) Лицензия
Режиссер: Стефан Эллиотт
Сценарий: Дин Крэйг
Продюсер: Антония Барнард, Гари Хэмилтон, Лоуренс Малкин
Оператор: Стивен Ф. Уиндон
Композитор: Гай Гросс
В ролях: Ксавьер Сэмюэл, Крис Маршалл, Кевин Бишоп, Тим Драксл, Лаура Брент, Ребел Уилсон, Оливия Ньютон-Джон, Джонатан Биггинс, Стив Ле Маркванд
Бюджет: AUD 14 000 000
Сборы в России: $1 120 018
Описание: Как празднуют свадьбу в Австралии? Да круче, чем новый год в России. Шикарная церемония, море алкоголя и тройка верных друзей, решивших оторваться на полную катушку. Сможет ли настоящая любовь пережить эти испытания?
Изображение
Мировая премьера: 14 октября 2011
Релиз на DVD: 7 июня 2012, «CP Дистрибуция»
Релиз на Blu-ray: 7 июня 2012, «CP Дистрибуция»
Раздача группы: Изображение
Качество: BDRip, 720p
Формат: Matroska
Видео: AVC; 1280x544 (2.35:1); 4834 Kbps; 24 fps; 0,289 bit/pixel
Аудио №1: Russian; AC3; 448 Kbps; CBR; 6 ch
Аудио №2: English; DTS; 1509 Kbps; CBR; 6 ch; 24 bit


MediaInfo
General
Unique ID : 218502641112201286192848149833629926357 (0xA46213F42CDD0734B08B1793189183D5)
Complete name : Svadebnyj.razgrom.2011.D.BDRip.720p.mkv
Format : Matroska
File size : 4.67 GiB
Duration : 1h 36mn
Overall bit rate : 6 931 Kbps
Encoded date : UTC 2012-06-05 15:02:56
Writing application : mkvmerge v5.5.0 ('Healer') built on Apr 6 2012 21:43:24
Writing library : libebml v1.2.3 + libmatroska v1.3.0
Video #1
ID : 1
Format : AVC
Format/Info : Advanced Video Codec
Format profile : High@L4.1
Format settings, CABAC : Yes
Format settings, ReFrames : 4 frames
Muxing mode : Header stripping
Codec ID : V_MPEG4/ISO/AVC
Duration : 1h 36mn
Bit rate : 4 975 Kbps
Width : 1 280 pixels
Height : 544 pixels
Display aspect ratio : 2.35:1
Frame rate : 24.000 fps
Color space : YUV
Chroma subsampling : 4:2:0
Bit depth : 8 bits
Scan type : Progressive
Bits/(Pixel*Frame) : 0.298
Stream size : 3.26 GiB (70%)
Title : Svadebnyj.razgrom.2011.D.BDRip.720p
Writing library : x264 core 124 r2197 69a0443
Encoding settings : cabac=1 / ref=4 / deblock=1:0:0 / analyse=0x3:0x133 / me=umh / subme=9 / psy=1 / psy_rd=1.00:0.00 / mixed_ref=1 / me_range=16 / chroma_me=1 / trellis=2 / 8x8dct=1 / cqm=0 / deadzone=21,11 / fast_pskip=1 / chroma_qp_offset=-2 / threads=12 / sliced_threads=0 / nr=0 / decimate=1 / interlaced=0 / bluray_compat=0 / constrained_intra=0 / bframes=3 / b_pyramid=2 / b_adapt=2 / b_bias=0 / direct=3 / weightb=1 / open_gop=0 / weightp=2 / keyint=250 / keyint_min=24 / scenecut=40 / intra_refresh=0 / rc_lookahead=60 / rc=2pass / mbtree=1 / bitrate=4975 / ratetol=1.0 / qcomp=0.60 / qpmin=0 / qpmax=69 / qpstep=4 / cplxblur=20.0 / qblur=0.5 / ip_ratio=1.40 / aq=1:1.00
Language : English
Audio #2
ID : 2
Format : AC-3
Format/Info : Audio Coding 3
Mode extension : CM (complete main)
Muxing mode : Header stripping
Codec ID : A_AC3
Duration : 1h 36mn
Bit rate mode : Constant
Bit rate : 448 Kbps
Channel(s) : 6 channels
Channel positions : Front: L C R, Side: L R, LFE
Sampling rate : 48.0 KHz
Bit depth : 16 bits
Compression mode : Lossy
Stream size : 309 MiB (6%)
Title : AC3 5.1 @ 448 kbps [Dub]
Language : Russian
Audio #3
ID : 3
Format : DTS
Format/Info : Digital Theater Systems
Muxing mode : Header stripping
Codec ID : A_DTS
Duration : 1h 36mn
Bit rate mode : Constant
Bit rate : 1 510 Kbps
Channel(s) : 6 channels
Channel positions : Front: L C R, Side: L R, LFE
Sampling rate : 48.0 KHz
Bit depth : 24 bits
Compression mode : Lossy
Stream size : 1.02 GiB (22%)
Title : DTS 5.1 @ 1510 kbps [Original]
Language : English

Свернуть

Скриншоты

Изображение
Изображение
Изображение
Изображение
Изображение
Изображение
Свернуть
_________________
ИзображениеИзображение Изображение
Изображение
 tany1984 и di-ys1 нравится это.
Не в сети
Профиль  
 Добавлено: 2012-06-14 16:46 (спустя 8 дней)
Кинокомментатор
Аватара пользователя
Стаж: 9 лет 1 месяц
Сообщений: 1332
Лайков: 54
фильм клеше... молодёжные глупости, попсовая романтика.. и всё в таком духе. фильм посмотреть можно) если вы это любите!)
в общем что тут скажешь, слизан с Мальчишника и Американского пирога) в который раз)) в общем твёрдые 6/10
_________________
Я ВКонтакте
Не в сети
Профиль  
Начать новую темуОтветить на тему  [ Сообщений: 2 ] 
Вы не можете начинать темы
Вы не можете отвечать на сообщения
Вы не можете редактировать свои сообщения
Вы не можете удалять свои сообщения