Правила форума

  • В этом разделе создание новых тем Запрещено.
  • Для создания новых тем пользуйтесь Корневым разделом DVD и HD фильмы.
Начать новую темуОтветить на тему  [ Сообщений: 2 ] 
Торрент файл
Размер: 9.82 GB • Зарегистрирован: 4 года 5 месяцев • Статус: Проверено
Скачан: 33 раза • Желающих скачать: 0 • Поблагодарили: 7 раз
 Раздают: 0  |  0 KB/s  ]   Качают: 0  |  0 KB/s  ] 
 Полного источника не было 3 года 2 месяца 
Сообщения
 Добавлено: 2012-06-07 21:00
Модератор релиз-группы
Аватара пользователя
Стаж: 9 лет 1 месяц
Возраст: 97
Сообщений: 11659
Спасибок: 6530
Лайков: 269
Свадебный разгром / A Few Best Men

«Этот мальчишник вам не по зубам!»

Изображение

Год выпуска: 2011
Страна: США, Великобритания, Австралия
Жанр: комедия
Продолжительность: 01:36:35
Перевод: Профессиональный (полное дублирование)

Режиссер: Стефан Эллиотт

В ролях: Ксавьер Сэмюэл, Крис Маршалл, Кевин Бишоп, Тим Драксл, Лаура Брент, Ребел Уилсон, Оливия Ньютон-Джон, Джонатан Биггинс, Стив Ле Маркванд

Описание: Как празднуют свадьбу в Австралии? Да круче, чем новый год в России. Шикарная церемония, море алкоголя и тройка верных друзей, решивших оторваться на полную катушку. Сможет ли настоящая любовь пережить эти испытания?
Изображение

Качество:BDRemux
Формат: mkv
Видео: AVC; 1920x1080 (16:9); ~14600 Kbps; 23,976 fps
Audio: DTS, 1 510 Kbps, 6 channels, Front: L C R, Side: L R, LFE, 48.0 KHz, 16 bits
Скриншоты
Изображение

Изображение

Изображение
Свернуть
Mi
Format : Matroska
Format version : Version 2
File size : 9.82 GiB
Duration : 1h 36mn
Overall bit rate mode : Variable
Overall bit rate : 14.6 Mbps
Encoded date : UTC 2012-06-07 17:44:19
Writing application : mkvmerge v5.6.0 ('Kenya Kane') built on May 27 2012 16:44:04
Writing library : libebml v1.2.3 + libmatroska v1.3.0

Video
ID : 1
Format : AVC
Format/Info : Advanced Video Codec
Format profile : Main@L4.1
Format settings, CABAC : Yes
Format settings, ReFrames : 3 frames
Format settings, GOP : M=4, N=18
Codec ID : V_MPEG4/ISO/AVC
Duration : 1h 36mn
Bit rate mode : Variable
Bit rate : 12.8 Mbps
Maximum bit rate : 25.0 Mbps
Width : 1 920 pixels
Height : 1 080 pixels
Display aspect ratio : 16:9
Frame rate : 23.976 fps
Standard : NTSC
Color space : YUV
Chroma subsampling : 4:2:0
Bit depth : 8 bits
Scan type : Progressive
Bits/(Pixel*Frame) : 0.257
Stream size : 8.61 GiB (88%)
Default : Yes
Forced : No

Audio
ID : 2
Format : DTS
Format/Info : Digital Theater Systems
Codec ID : A_DTS
Duration : 1h 36mn
Bit rate mode : Constant
Bit rate : 1 510 Kbps
Channel(s) : 6 channels
Channel positions : Front: L C R, Side: L R, LFE
Sampling rate : 48.0 KHz
Bit depth : 16 bits
Compression mode : Lossy
Stream size : 1.02 GiB (10%)
Default : Yes
Forced : No

Свернуть
_________________
Изображение
Не в сети
Профиль  
 Добавлено: 2012-09-13 20:21 (спустя 3 месяца 5 дней)
Стаж: 4 года 10 месяцев
Сообщений: 1
:co_ol:
Не в сети
Профиль  
Начать новую темуОтветить на тему  [ Сообщений: 2 ] 
Вы не можете начинать темы
Вы не можете отвечать на сообщения
Вы не можете редактировать свои сообщения
Вы не можете удалять свои сообщения