Правила форума

  • В этом разделе создание новых тем Запрещено.
  • Для создания новых тем пользуйтесь Корневым разделом DVD и HD фильмы.
Начать новую темуОтветить на тему  [ Сообщений: 5 ] 
Торрент файл
Размер: 13.95 GB • Зарегистрирован: 1 год 9 месяцев • Статус: Проверено
Скачан: 290 раз • Желающих скачать: 0 • Поблагодарили: 50 раз
 Раздают: 0  |  0 KB/s  ]   Качают: 0  |  0 KB/s  ] 
 Полного источника не было 5 часов 
Сообщения
 Добавлено: 2015-02-08 10:26
Top-releaser
Аватара пользователя
Стаж: 8 лет 9 месяцев
Сообщений: 479
Спасибок: 20187
Лайков: 16
Изображение

Свалка

Trash


«You never know what you might find»

Год выпуска: 2014
Страна: Великобритания, Бразилия / O2 Filmes, PeaPie Films, Working Title Films
Жанр: Триллер, драма, криминал, приключения
Продолжительность: 01:53:44
Перевод: Профессиональный (дублированный) [Лицензия] , Оригинал
Субтитры: Английские

Режиссёр: Стивен Долдри / Stephen Daldry

В ролях: Руни Мара, Мартин Шин, Вагнер Моура, Селтон Мелу, Кристиана Аманпур, Риксон Тевес, Андре Рамиру, Хесвита Барбоса, Нелсон Шавьер

Описание: История о трех мальчиках, живущих в стране третьего мира. Они еле сводят концы с концами, копаясь в мусоре. Однажды они находят кожаную сумку, содержимое которой окунает их в ужасное приключение...


Качество: BDRip 1080p R5
Формат: MKV

Видео: MPEG4 Video (H264), 1920x816, 23.98fps, 14,5 Мбит/сек

Аудио 1: DTS, 48000Hz, 6ch, 768 Кбит/сек [Дубляж]
Аудио 2: AC3, 48000Hz, 6ch, 448 Кбит/сек [Дубляж]
Аудио 3: DTS, 48000Hz, 6ch,1509 Кбит/сек [Оригинал]

Изображение
MediaInfo

General
Unique ID : 192590121263207013620257403365826868331 (0x90E38216575175239A11CCA0D369B46B)
Complete name : C:\Users\Home\Desktop\Trash.2014.1080p.BluRay..mkv
Format : Matroska
Format version : Version 4 / Version 2
File size : 14.0 GiB
Duration : 1h 53mn
Overall bit rate : 17.6 Mbps
Encoded date : UTC 2015-02-07 19:32:04
Writing application : mkvmerge v7.3.0 ('Nouages') 64bit built on Oct 22 2014 18:53:34
Writing library : libebml v1.3.0 + libmatroska v1.4.1
_STATISTICS_WRITING_APP : mkvmerge v7.3.0 ('Nouages') 64bit built on Oct 22 2014 18:53:34
_STATISTICS_WRITING_DATE_UTC : 2015-02-07 19:32:04
_STATISTICS_TAGS : BPS DURATION NUMBER_OF_FRAMES NUMBER_OF_BYTES
DURATION : 01:53:43.819000000
NUMBER_OF_FRAMES : 639733
NUMBER_OF_BYTES : 655086592

Video
ID : 1
Format : AVC
Format/Info : Advanced Video Codec
Format profile : High@L4.1
Format settings, CABAC : Yes
Format settings, ReFrames : 5 frames
Codec ID : V_MPEG4/ISO/AVC
Duration : 1h 53mn
Bit rate : 14.5 Mbps
Width : 1 920 pixels
Height : 816 pixels
Display aspect ratio : 2.35:1
Frame rate mode : Constant
Frame rate : 23.976 fps
Color space : YUV
Chroma subsampling : 4:2:0
Bit depth : 8 bits
Scan type : Progressive
Bits/(Pixel*Frame) : 0.386
Stream size : 11.5 GiB (82%)
Writing library : x264 core 142 r2431+42 c69a006 tMod [8-bit@all X86_64]
Encoding settings : cabac=1 / ref=5 / deblock=1:-3:-3 / analyse=0x3:0x133 / me=umh / subme=9 / psy=1 / fade_compensate=0.00 / psy_rd=1.03:0.00 / mixed_ref=1 / me_range=24 / chroma_me=1 / trellis=2 / 8x8dct=1 / cqm=0 / deadzone=21,11 / fast_pskip=0 / chroma_qp_offset=-2 / threads=18 / lookahead_threads=3 / sliced_threads=0 / nr=0 / decimate=0 / interlaced=0 / bluray_compat=0 / constrained_intra=0 / fgo=0 / bframes=8 / b_pyramid=2 / b_adapt=2 / b_bias=0 / direct=3 / weightb=1 / open_gop=0 / weightp=2 / keyint=250 / keyint_min=23 / scenecut=40 / intra_refresh=0 / rc=crf / mbtree=0 / crf=17.3000 / qcomp=0.75 / qpmin=0:0:0 / qpmax=69:69:69 / qpstep=4 / ip_ratio=1.30 / pb_ratio=1.20 / aq=3:0.75 / aq-sensitivity=10.00 / aq-factor=1.00:1.00:1.00 / aq2=0 / aq3=0
Language : English
Default : Yes
Forced : No
_STATISTICS_WRITING_APP : mkvmerge v7.3.0 ('Nouages') 64bit built on Oct 22 2014 18:53:34
_STATISTICS_WRITING_DATE_UTC : 2015-02-07 19:32:04
_STATISTICS_TAGS : BPS DURATION NUMBER_OF_FRAMES NUMBER_OF_BYTES
DURATION : 01:53:43.776000000
NUMBER_OF_FRAMES : 163607
NUMBER_OF_BYTES : 12652417420

Audio #1
ID : 2
Format : DTS
Format/Info : Digital Theater Systems
Mode : 16
Format settings, Endianness : Big
Codec ID : A_DTS
Duration : 1h 53mn
Bit rate mode : Constant
Bit rate : 768 Kbps
Channel(s) : 6 channels
Channel positions : Front: L C R, Side: L R, LFE
Sampling rate : 48.0 KHz
Bit depth : 24 bits
Compression mode : Lossy
Stream size : 625 MiB (4%)
Language : Russian
Default : Yes
Forced : No

Audio #2
ID : 3
Format : AC-3
Format/Info : Audio Coding 3
Mode extension : CM (complete main)
Format settings, Endianness : Big
Codec ID : A_AC3
Duration : 1h 53mn
Bit rate mode : Constant
Bit rate : 448 Kbps
Channel(s) : 6 channels
Channel positions : Front: L C R, Side: L R, LFE
Sampling rate : 48.0 KHz
Bit depth : 16 bits
Compression mode : Lossy
Stream size : 364 MiB (3%)
Language : Russian
Default : No
Forced : No

Audio #3
ID : 4
Format : DTS
Format/Info : Digital Theater Systems
Mode : 16
Format settings, Endianness : Big
Codec ID : A_DTS
Duration : 1h 53mn
Bit rate mode : Constant
Bit rate : 1 509 Kbps
Channel(s) : 6 channels
Channel positions : Front: L C R, Side: L R, LFE
Sampling rate : 48.0 KHz
Bit depth : 24 bits
Compression mode : Lossy
Stream size : 1.20 GiB (9%)
Language : English
Default : No
Forced : No

Text
ID : 5
Format : UTF-8
Codec ID : S_TEXT/UTF8
Codec ID/Info : UTF-8 Plain Text
Language : English
Default : No
Forced : No

Menu
00:00:00.000 : en:00:00:00.000
00:05:41.633 : en:00:05:41.633
00:11:27.312 : en:00:11:27.312
00:17:52.071 : en:00:17:52.071
00:23:32.953 : en:00:23:32.953
00:31:00.067 : en:00:31:00.067
00:38:09.787 : en:00:38:09.787
00:43:48.251 : en:00:43:48.251
00:53:26.829 : en:00:53:26.829
01:01:26.975 : en:01:01:26.975
01:08:38.990 : en:01:08:38.990
01:15:59.597 : en:01:15:59.597
01:23:51.193 : en:01:23:51.193
01:26:58.380 : en:01:26:58.380
01:29:23.358 : en:01:29:23.358
01:33:26.726 : en:01:33:26.726
01:37:48.905 : en:01:37:48.905
01:40:39.408 : en:01:40:39.408
01:44:04.113 : en:01:44:04.113
01:49:13.964 : en:01:49:13.964


Свернуть
Скриншоты
ИзображениеИзображениеИзображениеИзображение
Свернуть
_________________
Изображение
Изображение
 dVision и WISHMASTER23 нравится это.
Не в сети
Профиль  
 Добавлено: 2015-03-05 14:25 (спустя 25 дней)
Кинокомментатор
Аватара пользователя
Стаж: 9 лет 1 месяц
Сообщений: 1332
Лайков: 54
классное кино! держит в напряжение) безусловно стоит посмотреть и ознакомиться... да ещё и изнанка Рио в купе с прекрасным пляжем... в общем колоритненько)) 8/10
_________________
Я ВКонтакте
Не в сети
Профиль  
 Добавлено: 2015-04-06 23:47 (спустя 1 месяц 1 день)
Аватара пользователя
Стаж: 8 лет 3 месяца
Возраст: 33
Сообщений: 319
Спасибок: 602
Лайков: 34
Хороший фильм :co_ol:
Не в сети
Профиль  
 Добавлено: 2015-04-12 19:59 (спустя 5 дней)
Аватара пользователя
Стаж: 7 лет 1 месяц
Сообщений: 235
Спасибок: 1
Лайков: 1
СПОЙЛЕР ТАКОЙ СПОЙЛЕР
Cкрытый текст
Ну уж со стреляюими в детей полицейских переборщили да и вообще уж очень жестокие полицейские
Свернуть
Не в сети
Профиль  
 Добавлено: 2015-04-12 20:32 (спустя 32 минуты)
Аватара пользователя
Стаж: 8 лет 11 месяцев
Возраст: 55
Сообщений: 14343
Спасибок: 181
Лайков: 1182

Idiot:

Ну уж со стреляюими в детей полицейских переборщили да и вообще уж очень жестокие полицейские
Тут наоборот...Чуть приукрасили, чтоб народ не пугать. Там все страшнее, намного.
Одна из самых криминальных стран.
Пересмотрите классику - Генералы песчаных карьеров - например. Тож родом от туда.
_________________
Изображение
Блин...
Изображение
Не в сети
Профиль  
Начать новую темуОтветить на тему  [ Сообщений: 5 ] 
Вы не можете начинать темы
Вы не можете отвечать на сообщения
Вы не можете редактировать свои сообщения
Вы не можете удалять свои сообщения