Правила форума

  • В этом разделе создание новых тем Запрещено.
  • Для создания новых тем пользуйтесь Корневым разделом DVD и HD фильмы.
Начать новую темуОтветить на тему  [ 1 сообщение ] 
Торрент файл
Размер: 8.78 GB • Зарегистрирован: 3 года 10 месяцев • Статус: Проверено
Скачан: 13 раз • Желающих скачать: 0 • Поблагодарили: 3 раза
 Раздают: 0  |  0 KB/s  ]   Качают: 0  |  0 KB/s  ] 
 Полного источника не было 3 года 2 месяца 
Сообщения
 Добавлено: 2013-02-17 20:15
Модератор релиз-группы
Аватара пользователя
Стаж: 7 лет 8 месяцев
Возраст: 29
Сообщений: 9789
Спасибок: 23730
Лайков: 103
Изображение

Светлячки в саду
Fireflies in the Garden


Год выпуска: 2008
Страна: США
Слоган: «Sometimes a family must come apart before it can come together»
Жанр: драма
Продолжительность: 01:40:02
Перевод: Профессиональный (полное дублирование)
Режиссер: Дэннис Ли
Сценарий: Роберт Фрост, Дэннис Ли
Продюсер: Суки Чю, Ванесса Койфман, Марко Вебер, Джир Хаусфейтер, Милтон Лью
Оператор: Дэниэл Модер
Композитор: Джейн Антония Корниш
В ролях: Райан Рейнольдс, Пётр Иващенко, Уиллем Дефо, Борис Токарев, Эмили Уотсон, Любовь Германова, Кэрри-Энн Мосс, Елена Соловьева, Джулия Робертс, Марианна Шульц, Йоан Гриффит, Хайден Панеттьери
Бюджет: $8 000 000
Сборы в США: $70 600
Сборы в России: $240 120
Сборы в мире: $3 393 161
Мировая премьера: 10 февраля 2008
Релиз на DVD: 18 ноября 2008, «West Video»
Описание: История раскола одной обычной семьи, у каждого из членов которой своя трагедия. Лиза гибнет в автокатастрофе, виновником которой является её муж Чарльз. Сын Лизы и Чарльза, Майкл, женатый на алкоголичке Келли, решает написать книгу о своем детстве. Этому противится вся семья - от тети до самого Чарльза

Изображение User Rating: 7.093 (2967)
Изображение User Rating: 6.50 (7 141)
MPAA: R - Лицам до 17 лет обязательно присутствие взрослого
Раздача группы: Изображение
Качество: BDRip, 1080p
Формат: Matroska
Видео: AVC; 1920x800 (2.40:1); 11551 Kbps; 24 fps; 0,313 bit/pixel
Аудио №1: Russian; AC3; 384 Kbps; CBR; 6 ch
Аудио №2: English; AC3; 384 Kbps; CBR; 6 ch

Субтитры №1: Russian
Субтитры №2: English

mediainfo
Общее
Уникальный идентификатор : 203451007570824551692266752689062753648 (0x990F3D2001D552DCBAE4BEDB77273570)
Полное имя : D:\TORRENT\Svetlachki.v.sadu.[R.G.Daredevil].mkv
Формат : Matroska
Размер файла : 8,78 Гбайт
Продолжительность : 1 ч. 40 м.
Общий поток : 12,6 Мбит/сек
Дата кодирования : UTC 2010-07-28 18:18:17
Программа кодирования : mkvmerge v3.2.0 ('Beginnings') built on Feb 12 2010 16:46:17
Библиотека кодирования : libebml v0.7.9 + libmatroska v0.8.1

Видео
Идентификатор : 1
Формат : AVC
Формат/Информация : Advanced Video Codec
Профиль формата : High@L4.1
Параметр CABAC формата : Да
Параметр ReFrames формата : 5 кадров
Идентификатор кодека : V_MPEG4/ISO/AVC
Продолжительность : 1 ч. 40 м.
Битрейт : 11,8 Мбит/сек
Ширина : 1920 пикс.
Высота : 800 пикс.
Соотношение сторон : 2,40:1
Частота кадров : 24,000 кадр/сек
Цветовое пространство : YUV
Подвыборка цветности : 4:2:0
Битовая глубина : 8 бит
Тип развёртки : Прогрессивная
Бит/(Пиксели*Кадры) : 0.321
Размер потока : 8,07 Гбайт (92%)
Заголовок : Fireflies.In.The.Garden.2008
Библиотека кодирования : x264 core 102 r1666 d058f37
Настройки программы : cabac=1 / ref=5 / deblock=1:-3:-3 / analyse=0x3:0x113 / me=umh / subme=9 / psy=1 / psy_rd=1.05:0.10 / mixed_ref=1 / me_range=32 / chroma_me=1 / trellis=2 / 8x8dct=1 / cqm=2 / deadzone=21,11 / fast_pskip=0 / chroma_qp_offset=-2 / threads=12 / sliced_threads=0 / nr=0 / decimate=1 / interlaced=0 / constrained_intra=0 / bframes=4 / b_pyramid=2 / b_adapt=2 / b_bias=0 / direct=3 / weightb=1 / open_gop=0 / weightp=2 / keyint=250 / keyint_min=25 / scenecut=40 / intra_refresh=0 / rc_lookahead=50 / rc=2pass / mbtree=1 / bitrate=11823 / ratetol=2.0 / qcomp=0.70 / qpmin=10 / qpmax=51 / qpstep=4 / cplxblur=20.0 / qblur=0.5 / vbv_maxrate=50000 / vbv_bufsize=50000 / ip_ratio=1.40 / aq=1:1.00 / nal_hrd=none
Язык : English

Аудио #1
Идентификатор : 2
Формат : AC-3
Формат/Информация : Audio Coding 3
Расширение режима : CM (complete main)
Идентификатор кодека : A_AC3
Продолжительность : 1 ч. 40 м.
Вид битрейта : Постоянный
Битрейт : 384 Кбит/сек
Каналы : 6 каналов
Расположение каналов : Front: L C R, Side: L R, LFE
Частота : 48,0 КГц
Битовая глубина : 16 бит
Метод сжатия : С потерями
Размер потока : 275 Мбайт (3%)
Язык : Russian

Аудио #2
Идентификатор : 3
Формат : AC-3
Формат/Информация : Audio Coding 3
Расширение режима : CM (complete main)
Идентификатор кодека : A_AC3
Продолжительность : 1 ч. 40 м.
Вид битрейта : Постоянный
Битрейт : 384 Кбит/сек
Каналы : 6 каналов
Расположение каналов : Front: L C R, Side: L R, LFE
Частота : 48,0 КГц
Битовая глубина : 16 бит
Метод сжатия : С потерями
Размер потока : 275 Мбайт (3%)
Язык : English

Текст #1
Идентификатор : 4
Формат : UTF-8
Идентификатор кодека : S_TEXT/UTF8
Идентификатор кодека/Информация : UTF-8 Plain Text
Язык : Russian

Текст #2
Идентификатор : 5
Формат : UTF-8
Идентификатор кодека : S_TEXT/UTF8
Идентификатор кодека/Информация : UTF-8 Plain Text
Язык : English


Свернуть
"Знаете ли Вы, что..."
  • В фильме один из главных героев читает стихотворение Роберта Фроста «Светлячки в саду», название которого стало названием данной ленты.
Свернуть
Скриншоты

Изображение
Изображение
Изображение
Изображение
Изображение
Изображение
Свернуть


Тема поднималась пользователем volkov2009 2013-02-17 20:15.
Не в сети
Профиль  
Начать новую темуОтветить на тему  [ 1 сообщение ] 
Вы не можете начинать темы
Вы не можете отвечать на сообщения
Вы не можете редактировать свои сообщения
Вы не можете удалять свои сообщения