Правила форума

  • В этом разделе создание новых тем Запрещено.
  • Для создания новых тем пользуйтесь Корневым разделом DVD и HD фильмы.
Начать новую темуОтветить на тему  [ Сообщений: 12 ] 
Торрент файл
Размер: 5.56 GB • Зарегистрирован: 6 лет 8 месяцев • Статус: Проверено
Скачан: 274 раза • Желающих скачать: 0 • Поблагодарили: 64 раза
 Раздают: 0  |  0 KB/s  ]   Качают: 0  |  0 KB/s  ] 
 Полного источника не было 11 часов 
Сообщения
 Добавлено: 2010-03-13 12:48
Модератор релиз-группы
Аватара пользователя
Стаж: 7 лет 11 месяцев
Сообщений: 669
Спасибок: 4991
Лайков: 2
Святые из бундока 2: День всех святых / The Boondock Saints II: All Saints Day


Изображение


Год выпуска: 2009
Страна: Изображение
Жанр: Боевик, триллер, драма, криминал
Продолжительность: 01:57:30
Перевод: Профессиональный (многоголосый, закадровый) с лицензии
Русские субтитры: есть(присутствует ненормативная лексика)

Режиссер: Трой Даффи
Сценарий: Трой Даффи, Тейлор Даффи
Продюсер: Крис Бринкер, Дон Кармоди, Роберт Н. Фрид, ...
Оператор: Мирослав Башак
Композитор: Джефф Дэнна
Художник: Дэн Ярхи, Джорджина Ярхи, Дэннис Девенпорт, ...
Монтаж: Билл ДеРонде, Пол Кумпата

В ролях: Шон Патрик Флэнери, Норман Ридус, Билли Коннолли, Клифтон Коллинз мл., Джули Бенц, Питер Фонда, Пол Йоханссон, Джадд Нельсон, Дэвид Делла Рокко, Боб Марли
Описание: Последние 8 лет братья жили вместе с отцом на ферме в глубинке Ирландии. Однажды их дядя рассказывает им о слухах, что они причастны к убийству католического священника Бостона. Парни возвращаются в Бостон, чтобы очистить свою испорченную репутацию, и найти людей, подставивших их.

Бюджет: $8 000 000
Сборы в США: $10 244 070
Сборы в мире: + $356 133 = $10 600 203
DVD в США: $18 553 106
Премьера (мир): 19 октября 2009
Релиз на DVD: 18 марта 2010, «Columbia\Sony», ...
Релиз на Blu-Ray: 18 марта 2010, «Columbia\Sony», ...
Рейтинг MPAA: R

Доп. информация: Только с русской дорожкой рип умещается на DVD5.
Изображение 6.863Изображение 6.4

Качество: BDRip
Формат: MKV
Видео кодек: H.264
Аудио кодек: AC3, DTS
Видео: 1280x544, 4876 kbps, 23.976 fps
Аудио: Русский AC3 5.1, 48 KHz, 384 kbps
Аудио: Английский DTS 5.1, 48 KHz, 1536 kbps
Субтитры: Русские, английские

"Скриншоты"

Изображение
Изображение
Изображение
Изображение
Свернуть

"MediaInfo"

General
Complete name : Boondock Saints II.All Saints Day.BD.Rip.720p.h264.Rus.Eng.mkv
Format : Matroska
File size : 5.56 GiB
Duration : 1h 57mn
Overall bit rate : 6 772 Kbps
Encoded date : UTC 2010-03-09 20:26:03
Writing application : mkvmerge v3.2.0 ('Beginnings') built on Feb 12 2010 16:46:17
Writing library : libebml v0.7.9 + libmatroska v0.8.1

Video
ID : 1
Format : AVC
Format/Info : Advanced Video Codec
Format profile : High@L4.1
Format settings, CABAC : Yes
Format settings, ReFrames : 11 frames
Muxing mode : Container profile=Unknown@4.1
Codec ID : V_MPEG4/ISO/AVC
Duration : 1h 57mn
Bit rate : 4 743 Kbps
Nominal bit rate : 4 876 Kbps
Width : 1 280 pixels
Height : 544 pixels
Display aspect ratio : 2.35:1
Frame rate : 23.976 fps
Resolution : 8 bits
Colorimetry : 4:2:0
Scan type : Progressive
Bits/(Pixel*Frame) : 0.284
Stream size : 3.89 GiB (70%)
Writing library : x264 core 88 r1471 1144615
Encoding settings : cabac=1 / ref=11 / deblock=1:-3:-3 / analyse=0x3:0x113 / me=umh / subme=10 / psy=1 / psy_rd=1.00:0.00 / mixed_ref=1 / me_range=32 / chroma_me=1 / trellis=2 / 8x8dct=1 / cqm=0 / deadzone=21,11 / fast_pskip=0 / chroma_qp_offset=-2 / threads=6 / sliced_threads=0 / nr=0 / decimate=0 / mbaff=0 / constrained_intra=0 / bframes=10 / b_pyramid=2 / b_adapt=2 / b_bias=0 / direct=3 / wpredb=1 / wpredp=2 / keyint=250 / keyint_min=25 / scenecut=40 / intra_refresh=0 / rc_lookahead=80 / rc=2pass / mbtree=1 / bitrate=4876 / ratetol=1.0 / qcomp=0.70 / qpmin=10 / qpmax=51 / qpstep=4 / cplxblur=20.0 / qblur=0.5 / ip_ratio=1.40 / aq=1:0.50
Language : English

Audio #1
ID : 2
Format : AC-3
Format/Info : Audio Coding 3
Codec ID : A_AC3
Duration : 1h 57mn
Bit rate mode : Constant
Bit rate : 384 Kbps
Channel(s) : 6 channels
Channel positions : Front: L C R, Surround: L R, LFE
Sampling rate : 48.0 KHz
Stream size : 323 MiB (6%)
Title : AC3 5.1 384 kbps
Language : Russian

Audio #2
ID : 3
Format : DTS
Format/Info : Digital Theater Systems
Codec ID : A_DTS
Duration : 1h 57mn
Bit rate mode : Constant
Bit rate : 1 510 Kbps
Channel(s) : 6 channels
Channel positions : Front: L C R, Surround: L R, LFE
Sampling rate : 48.0 KHz
Resolution : 24 bits
Stream size : 1.24 GiB (22%)
Title : DTS 5.1 1536 kbps
Language : English

Text #1
ID : 4
Format : UTF-8
Codec ID : S_TEXT/UTF8
Codec ID/Info : UTF-8 Plain Text
Language : Russian

Text #2
ID : 5
Format : UTF-8
Codec ID : S_TEXT/UTF8
Codec ID/Info : UTF-8 Plain Text
Language : English

Menu
00:00:00.000 : en:00:00:00.000
00:06:14.374 : en:00:06:14.374
00:16:23.316 : en:00:16:23.316
00:22:15.960 : en:00:22:15.960
00:30:19.234 : en:00:30:19.234
00:36:27.143 : en:00:36:27.143
00:45:17.214 : en:00:45:17.214
00:48:10.846 : en:00:48:10.846
00:55:34.706 : en:00:55:34.706
01:04:47.050 : en:01:04:47.050
01:11:13.936 : en:01:11:13.936
01:18:22.656 : en:01:18:22.656
01:23:09.151 : en:01:23:09.151
01:29:31.157 : en:01:29:31.157
01:35:46.157 : en:01:35:46.157
01:43:06.389 : en:01:43:06.389
General
Complete name : Boondock Saints II.All Saints Day.BD.Rip.720p.h264.Rus.Eng.mkv
Format : Matroska
File size : 5.56 GiB
Duration : 1h 57mn
Overall bit rate : 6 772 Kbps
Encoded date : UTC 2010-03-09 20:26:03
Writing application : mkvmerge v3.2.0 ('Beginnings') built on Feb 12 2010 16:46:17
Writing library : libebml v0.7.9 + libmatroska v0.8.1

Video
ID : 1
Format : AVC
Format/Info : Advanced Video Codec
Format profile : High@L4.1
Format settings, CABAC : Yes
Format settings, ReFrames : 11 frames
Muxing mode : Container profile=Unknown@4.1
Codec ID : V_MPEG4/ISO/AVC
Duration : 1h 57mn
Bit rate : 4 743 Kbps
Nominal bit rate : 4 876 Kbps
Width : 1 280 pixels
Height : 544 pixels
Display aspect ratio : 2.35:1
Frame rate : 23.976 fps
Resolution : 8 bits
Colorimetry : 4:2:0
Scan type : Progressive
Bits/(Pixel*Frame) : 0.284
Stream size : 3.89 GiB (70%)
Writing library : x264 core 88 r1471 1144615
Encoding settings : cabac=1 / ref=11 / deblock=1:-3:-3 / analyse=0x3:0x113 / me=umh / subme=10 / psy=1 / psy_rd=1.00:0.00 / mixed_ref=1 / me_range=32 / chroma_me=1 / trellis=2 / 8x8dct=1 / cqm=0 / deadzone=21,11 / fast_pskip=0 / chroma_qp_offset=-2 / threads=6 / sliced_threads=0 / nr=0 / decimate=0 / mbaff=0 / constrained_intra=0 / bframes=10 / b_pyramid=2 / b_adapt=2 / b_bias=0 / direct=3 / wpredb=1 / wpredp=2 / keyint=250 / keyint_min=25 / scenecut=40 / intra_refresh=0 / rc_lookahead=80 / rc=2pass / mbtree=1 / bitrate=4876 / ratetol=1.0 / qcomp=0.70 / qpmin=10 / qpmax=51 / qpstep=4 / cplxblur=20.0 / qblur=0.5 / ip_ratio=1.40 / aq=1:0.50
Language : English

Audio #1
ID : 2
Format : AC-3
Format/Info : Audio Coding 3
Codec ID : A_AC3
Duration : 1h 57mn
Bit rate mode : Constant
Bit rate : 384 Kbps
Channel(s) : 6 channels
Channel positions : Front: L C R, Surround: L R, LFE
Sampling rate : 48.0 KHz
Stream size : 323 MiB (6%)
Title : AC3 5.1 384 kbps
Language : Russian

Audio #2
ID : 3
Format : DTS
Format/Info : Digital Theater Systems
Codec ID : A_DTS
Duration : 1h 57mn
Bit rate mode : Constant
Bit rate : 1 510 Kbps
Channel(s) : 6 channels
Channel positions : Front: L C R, Surround: L R, LFE
Sampling rate : 48.0 KHz
Resolution : 24 bits
Stream size : 1.24 GiB (22%)
Title : DTS 5.1 1536 kbps
Language : English

Text #1
ID : 4
Format : UTF-8
Codec ID : S_TEXT/UTF8
Codec ID/Info : UTF-8 Plain Text
Language : Russian

Text #2
ID : 5
Format : UTF-8
Codec ID : S_TEXT/UTF8
Codec ID/Info : UTF-8 Plain Text
Language : English

Menu
00:00:00.000 : en:00:00:00.000
00:06:14.374 : en:00:06:14.374
00:16:23.316 : en:00:16:23.316
00:22:15.960 : en:00:22:15.960
00:30:19.234 : en:00:30:19.234
00:36:27.143 : en:00:36:27.143
00:45:17.214 : en:00:45:17.214
00:48:10.846 : en:00:48:10.846
00:55:34.706 : en:00:55:34.706
01:04:47.050 : en:01:04:47.050
01:11:13.936 : en:01:11:13.936
01:18:22.656 : en:01:18:22.656
01:23:09.151 : en:01:23:09.151
01:29:31.157 : en:01:29:31.157
01:35:46.157 : en:01:35:46.157
01:43:06.389 : en:01:43:06.389
General
Complete name : Boondock Saints II.All Saints Day.BD.Rip.720p.h264.Rus.Eng.mkv
Format : Matroska
File size : 5.56 GiB
Duration : 1h 57mn
Overall bit rate : 6 772 Kbps
Encoded date : UTC 2010-03-09 20:26:03
Writing application : mkvmerge v3.2.0 ('Beginnings') built on Feb 12 2010 16:46:17
Writing library : libebml v0.7.9 + libmatroska v0.8.1

Video
ID : 1
Format : AVC
Format/Info : Advanced Video Codec
Format profile : High@L4.1
Format settings, CABAC : Yes
Format settings, ReFrames : 11 frames
Muxing mode : Container profile=Unknown@4.1
Codec ID : V_MPEG4/ISO/AVC
Duration : 1h 57mn
Bit rate : 4 743 Kbps
Nominal bit rate : 4 876 Kbps
Width : 1 280 pixels
Height : 544 pixels
Display aspect ratio : 2.35:1
Frame rate : 23.976 fps
Resolution : 8 bits
Colorimetry : 4:2:0
Scan type : Progressive
Bits/(Pixel*Frame) : 0.284
Stream size : 3.89 GiB (70%)
Writing library : x264 core 88 r1471 1144615
Encoding settings : cabac=1 / ref=11 / deblock=1:-3:-3 / analyse=0x3:0x113 / me=umh / subme=10 / psy=1 / psy_rd=1.00:0.00 / mixed_ref=1 / me_range=32 / chroma_me=1 / trellis=2 / 8x8dct=1 / cqm=0 / deadzone=21,11 / fast_pskip=0 / chroma_qp_offset=-2 / threads=6 / sliced_threads=0 / nr=0 / decimate=0 / mbaff=0 / constrained_intra=0 / bframes=10 / b_pyramid=2 / b_adapt=2 / b_bias=0 / direct=3 / wpredb=1 / wpredp=2 / keyint=250 / keyint_min=25 / scenecut=40 / intra_refresh=0 / rc_lookahead=80 / rc=2pass / mbtree=1 / bitrate=4876 / ratetol=1.0 / qcomp=0.70 / qpmin=10 / qpmax=51 / qpstep=4 / cplxblur=20.0 / qblur=0.5 / ip_ratio=1.40 / aq=1:0.50
Language : English

Audio #1
ID : 2
Format : AC-3
Format/Info : Audio Coding 3
Codec ID : A_AC3
Duration : 1h 57mn
Bit rate mode : Constant
Bit rate : 384 Kbps
Channel(s) : 6 channels
Channel positions : Front: L C R, Surround: L R, LFE
Sampling rate : 48.0 KHz
Stream size : 323 MiB (6%)
Title : AC3 5.1 384 kbps
Language : Russian

Audio #2
ID : 3
Format : DTS
Format/Info : Digital Theater Systems
Codec ID : A_DTS
Duration : 1h 57mn
Bit rate mode : Constant
Bit rate : 1 510 Kbps
Channel(s) : 6 channels
Channel positions : Front: L C R, Surround: L R, LFE
Sampling rate : 48.0 KHz
Resolution : 24 bits
Stream size : 1.24 GiB (22%)
Title : DTS 5.1 1536 kbps
Language : English

Text #1
ID : 4
Format : UTF-8
Codec ID : S_TEXT/UTF8
Codec ID/Info : UTF-8 Plain Text
Language : Russian

Text #2
ID : 5
Format : UTF-8
Codec ID : S_TEXT/UTF8
Codec ID/Info : UTF-8 Plain Text
Language : English

Menu
00:00:00.000 : en:00:00:00.000
00:06:14.374 : en:00:06:14.374
00:16:23.316 : en:00:16:23.316
00:22:15.960 : en:00:22:15.960
00:30:19.234 : en:00:30:19.234
00:36:27.143 : en:00:36:27.143
00:45:17.214 : en:00:45:17.214
00:48:10.846 : en:00:48:10.846
00:55:34.706 : en:00:55:34.706
01:04:47.050 : en:01:04:47.050
01:11:13.936 : en:01:11:13.936
01:18:22.656 : en:01:18:22.656
01:23:09.151 : en:01:23:09.151
01:29:31.157 : en:01:29:31.157
01:35:46.157 : en:01:35:46.157
01:43:06.389 : en:01:43:06.389
Свернуть


Последний раз редактировалось Ko4etoff 2011-01-02 01:56, всего редактировалось 1 раз.
Не в сети
Профиль  
 Добавлено: 2010-03-14 00:51 (спустя 12 часов)
Аватара пользователя
Стаж: 9 лет 1 месяц
Возраст: 29
Сообщений: 6486
Спасибок: 8100
Лайков: 6
Поправил заголовок.
_________________
R.I.P. Anatoly_v01@(super)moderator@nntt.org [04.07.08 - 11.04.11]
Изображение
Не в сети
Профиль  
 Добавлено: 2010-03-19 16:08 (спустя 5 дней)
Стаж: 7 лет 11 месяцев
Сообщений: 16
озвучка по верх английской :(
Не в сети
Профиль  
 Добавлено: 2010-03-19 16:27 (спустя 19 минут)
Аватара пользователя
Стаж: 9 лет 1 месяц
Возраст: 29
Сообщений: 6486
Спасибок: 8100
Лайков: 6
вадимулька
Вероятнее всего вы исползьуете Windows Media Player, который при наличии нескольких звуковых дорожек воспроизводит их все сразу.
Используйте например Media Player Classic (входит в K-Lite Mega Codec Pack 5.6.1), KMPlayer, GOMPlayer, VLC Media Player, которые вы легко найдете на нашем трекере. Все эти плееры позволяют переключаться между звуковыми дорожками.
_________________
R.I.P. Anatoly_v01@(super)moderator@nntt.org [04.07.08 - 11.04.11]
Изображение
Не в сети
Профиль  
 Добавлено: 2010-03-21 04:08 (спустя 1 день 11 часов)
Аватара пользователя
Стаж: 9 лет
Сообщений: 70
Лайков: 1
Без Дефо:(
Не в сети
Профиль  
 Добавлено: 2010-03-23 18:56 (спустя 2 дня 14 часов)
Аватара пользователя
Стаж: 8 лет 3 месяца
Сообщений: 26
Спасибок: 21
Спасибо. Первая часть супер, надеюсь эта не подкачает))
Не в сети
Профиль  
 Добавлено: 2010-03-24 18:22 (спустя 23 часа)
Кинокомментатор
Аватара пользователя
Стаж: 8 лет 1 месяц
Сообщений: 1325
Спасибок: 794
Лайков: 35
Интересный, задорный фильм!
Не уступил 1-й части ни в чём.
Не в сети
Профиль  
 Добавлено: 2010-05-08 01:58 (спустя 1 месяц 14 дней)
Пользователь забанен
Аватара пользователя
Стаж: 7 лет 10 месяцев
Сообщений: 660
Спасибок: 708

Volorel:

Без Дефо:(
С ним :-): но это сюрприз :-)
Саундтрек:
viewtopic.php?f=1024&t=304079&p=3429089#p3429089
_________________
ИзображениеИзображение
ИзображениеИзображение
Не в сети
Профиль  
 Добавлено: 2010-06-18 09:03 (спустя 1 месяц 10 дней)
Аватара пользователя
Стаж: 7 лет 7 месяцев
Сообщений: 28
Спасибу нажал при постановке на закачку. Отсмотревши фильм имею сказать - СПАСИБА БАЛЬШУШЩАЯ!!! По мне так второй фильм сильнее первого во всем.
Не в сети
Профиль  
 Добавлено: 2010-10-19 17:39 (спустя 4 месяца 1 день)
Аватара пользователя
Стаж: 8 лет 7 месяцев
Сообщений: 126
Спасибок: 45
Спасибо выложившему и раздающим.
Посмотрел, разочаровался жутко. Такой фильм испортить!
Фильму поставил бы 3-4 из 10. Такое ощущение, что снимал тот же режиссёр , что и Адреналин 2. Но в Адреналине, хотя бы выдержан темп фильма и, хотя и бредовый, но сюжет.
В этом же - тонна тупого мата, слабых шуток и очень хилого сюжета, с попыткой связать второй фильм с первой частью. Даже бои оставили желать лучшего...
Без обид, но фильм так себе. Первая часть НАМНОГО лучше.
_________________
ТЫ ПОЛЬЗОВАТЕЛЬ АДС, Билайн или СТРИМ? ХОЧЕШЬ КАЧАТЬ И РАЗДАВАТЬ БЫСТРЕЕ? ЗАХОДИ СЮДА
viewtopic.php?f=417&t=237823&p=2905311#p2905311
Проблема с системой или вопросы по трекеру, софту, играм? Пиши мне в личку. Как говорится: чем смогу, помогу...
Cкрытый текст
Неплохой магазин игр: проверено мной - надёжный, быстрая регистрация, удобный интерфейс, отличная скорость закачки игр. Yuplay.ru
Свернуть
Не в сети
Профиль  
 Добавлено: 2010-11-20 22:59 (спустя 1 месяц 1 день)
Пользователь забанен
Аватара пользователя
Стаж: 7 лет 10 месяцев
Сообщений: 660
Спасибок: 708
Cepbl4
Кто спорит что первый лучше, по мне так таким фильмам сиквелы не нужны, но когда нет фантазии увы их снимают :-P
_________________
ИзображениеИзображение
ИзображениеИзображение
Не в сети
Профиль  
 Добавлено: 2011-01-29 17:52 (спустя 2 месяца 8 дней)
Модератор релиз-группы
Аватара пользователя
Стаж: 7 лет 11 месяцев
Сообщений: 669
Спасибок: 4991
Лайков: 2
Обложка и скриншоты не открывались (облом от foto.nnov.ru)-к сожалению перезалил только обложку,что-то подправил: ПРИЯТНОГО ПРОСМОТРА!!!
Перед тем, как покинуть тему-Читаем:""Изображение"" :ad_min_v_duhe:!!!
_________________
Изображение
Изображение Изображение ИзображениеИзображение Изображение Изображение Изображение Изображение Изображение Изображение


Тема поднималась пользователем Ko4etoff 2011-01-29 17:52.
Не в сети
Профиль  
Начать новую темуОтветить на тему  [ Сообщений: 12 ] 
Вы не можете начинать темы
Вы не можете отвечать на сообщения
Вы не можете редактировать свои сообщения
Вы не можете удалять свои сообщения