Правила форума

  • В этом разделе создание новых тем Запрещено.
  • Для создания новых тем пользуйтесь Корневым разделом DVD и HD фильмы.
Начать новую темуОтветить на тему  [ 1 сообщение ] 
Торрент файл
Размер: 10.13 GB • Зарегистрирован: 5 лет 9 месяцев • Статус: Проверено
Скачан: 50 раз • Желающих скачать: 0 • Поблагодарили: 11 раз
 Раздают: 0  |  0 KB/s  ]   Качают: 0  |  0 KB/s  ] 
 Полного источника не было 3 года 2 месяца 
Сообщения
 Добавлено: 2011-02-19 19:46
Инквизитор
Аватара пользователя
Стаж: 8 лет 9 месяцев
Сообщений: 3753
Спасибок: 28360
Лайков: 9
Изображение

Святые из Бундока / Святые из трущоб / The Boondock Saints


Год выпуска: 1999
Страна: США, Канада
Слоган: «They're on a Mission From God»
Жанр: боевик, триллер, драма, комедия, криминал
Продолжительность: 01:48:04
Перевод: Профессиональный (многоголосый, закадровый) (Tycoon) в переводе присутствует ненормативная лексика
Профессиональный (многоголосый, закадровый) (с приложения к журналу Total DVD №10 2006)
Авторский одноголосый (Дмитрий Пучков aka Гоблин) в переводе присутствует ненормативная лексика

Режиссер: Трой Даффи
Сценарий: Трой Даффи
Продюсер: Ашок Амритрадж, Ричард Дж. Зинмен, Крис Бринкер, Дон Кармоди, Сара Каспер
Оператор: Адам Кэйн
Композитор: Джефф Дэнна
В ролях: Уиллем Дефо (Paul Smecker), Шон Патрик Флэнери (Connor MacManus), Норман Ридус (Murphy MacManus), Дэвид Делла Рокко (David Della 'Roc, Funny Man' Rocco), Билли Коннолли (Il Duce), Дэвид Ферри (Detective Dolly), Брайан Махони (Detective Duffy), Боб Марли (Detective Greenly), Ричард Фицпатрик (The Chief), Уильям Янг (Monsignor), Роберт Пембертон (Macklepenny), Билл Крэйг (McGerkin)
Описание: Чего только не бывает на свете! Два обычных ирландских парня, братья Коннор и Мерфи, преспокойно жили и работали в своем родном Бостоне, пока в один прекрасный день на них не снизошло озарение: сам Бог послал их на землю с особой миссией, наделив святой силой, чтобы очистить мир от зла. И братья взялись за дело со всей серьезностью, присущей ирландцам
Вскоре местную мафию охватывает настоящая паника - ведь методы «святых» не отличаются особой гуманностью, зато оказались очень эффективными - кровь полилась рекой!
Массовый отстрел мафиози не смог не привлечь внимания ФБР. Спецагент Пол Смекер, ведущий расследование, попадает в непростую ситуацию: служебный долг требует пресечь деятельность «святых братьев», однако в душе он не только сочувствует им, но даже готов присоединится к исполнителям «священной» миссии

Изображение
Бюджет: $6 000 000
Сборы в США: $30 471
Мировая премьера: 4 августа 1999
Изображение
MPAA:
Раздача группы: Изображение
Качество: BDRip 1080р
Формат: Matroska
Видео: H.264 ,1920x816, 9458 kbps, 23.976 fps
Аудио 1: Русский AC3 5.1, 48 KHz, 448 kbps профессиональный (многоголосый, закадровый) (Tycoon) в переводе присутствует ненормативная лексика
Аудио 2: Русский AC3 5.1, 48 KHz, 448 kbps профессиональный (многоголосый, закадровый) (с приложения к журналу Total DVD №10 2006)
Аудио 3: Русский DTS 5.1, 48 KHz, 1536 kbps (Дмитрий Пучков aka Гоблин) (сделана наложением чистого голоса на центральный канал английской дорожки) в переводе присутствует ненормативная лексика
Аудио 4: Английский DTS 5.1, 48 KHz, 1536 kbps
Субтитры: Русские (с лицензии), русские (Гоблин), английские

M.I.

Общее
Уникальный идентификатор         : 178977231766861713817419506204854930214 (0x86A5C2D10C85E047AF191C3C60374B26)
Полное имя                       : F:\Фильмы\Boondock Saints.1999.BD.Rip.1080p.h264.3xRus.Eng.mkv
Формат                           : Matroska
Размер файла                     : 10,1 Гбайт
Продолжительность                : 1 ч. 48 м.
Общий поток                      : 13,4 Мбит/сек
Дата кодирования                 : UTC 2009-02-08 13:11:55
Программа кодирования            : mkvmerge v2.4.2 ('Oh My God') built on Jan 18 2009 17:30:28
Библиотека кодирования           : libebml v0.7.7 + libmatroska v0.8.1

Видео
Идентификатор                    : 1
Формат                           : AVC
Формат/Информация                : Advanced Video Codec
Профиль формата                  : High@L4.1
Параметр CABAC формата           : Да
Параметр ReFrames формата        : 5 кадры
Идентификатор кодека             : V_MPEG4/ISO/AVC
Продолжительность                : 1 ч. 48 м.
Битрейт                          : 9458 Кбит/сек
Ширина                           : 1920 пикс.
Высота                           : 816 пикс.
Соотношение сторон               : 2,35:1
Частота кадров                   : 23,976 кадр/сек
Цветовое пространство            : YUV
Подвыборка цветности             : 4:2:0
Битовая глубина                  : 8 бит
Тип развёртки                    : Прогрессивная
Бит/(Пиксели*Кадры)              : 0.252
Размер потока                    : 6,97 Гбайт (69%)
Библиотека кодирования           : x264 core 66 r1101M b69548a
Настройки программы              : cabac=1 / ref=5 / deblock=1:-3:-3 / analyse=0x3:0x113 / me=umh / subme=9 / psy_rd=1.0:0.0 / mixed_ref=1 / me_range=32 / chroma_me=1 / trellis=0 / 8x8dct=1 / cqm=2 / deadzone=6,4 / chroma_qp_offset=-2 / threads=6 / nr=0 / decimate=0 / mbaff=0 / bframes=3 / b_pyramid=1 / b_adapt=2 / b_bias=0 / direct=3 / wpredb=1 / keyint=240 / keyint_min=24 / scenecut=40(pre) / rc=2pass / bitrate=9458 / ratetol=1.0 / qcomp=0.60 / qpmin=10 / qpmax=51 / qpstep=4 / cplxblur=20.0 / qblur=0.5 / ip_ratio=1.40 / pb_ratio=1.30 / aq=1:1.00
Язык                             : English

Аудио #1
Идентификатор                    : 2
Формат                           : AC-3
Формат/Информация                : Audio Coding 3
Расширение режима                : CM (complete main)
Идентификатор кодека             : A_AC3
Продолжительность                : 1 ч. 48 м.
Вид битрейта                     : Постоянный
Битрейт                          : 448 Кбит/сек
Канал(ы)                         : 6 канала(ов)
Расположение каналов             : Front: L C R, Side: L R, LFE
Частота                          : 48,0 КГц
Битовая глубина                  : 16 бит
Метод сжатия                     : С потерями
Размер потока                    : 348 Мбайт (3%)
Заголовок                        : Mnogogoloska Tycoon AC3 5.1 448 kbps
Язык                             : Russian

Аудио #2
Идентификатор                    : 3
Формат                           : AC-3
Формат/Информация                : Audio Coding 3
Расширение режима                : CM (complete main)
Идентификатор кодека             : A_AC3
Продолжительность                : 1 ч. 48 м.
Вид битрейта                     : Постоянный
Битрейт                          : 448 Кбит/сек
Канал(ы)                         : 6 канала(ов)
Расположение каналов             : Front: L C R, Side: L R, LFE
Частота                          : 48,0 КГц
Битовая глубина                  : 16 бит
Метод сжатия                     : С потерями
Размер потока                    : 348 Мбайт (3%)
Заголовок                        : Mnogogoloska Total DVD AC3 5.1 448 kbps
Язык                             : Russian

Аудио #3
Идентификатор                    : 4
Формат                           : DTS
Формат/Информация                : Digital Theater Systems
Идентификатор кодека             : A_DTS
Продолжительность                : 1 ч. 48 м.
Вид битрейта                     : Постоянный
Битрейт                          : 1510 Кбит/сек
Канал(ы)                         : 6 канала(ов)
Расположение каналов             : Front: L C R, Side: L R, LFE
Частота                          : 48,0 КГц
Битовая глубина                  : 24 бит
Метод сжатия                     : С потерями
Размер потока                    : 1,14 Гбайт (11%)
Заголовок                        : Goblin DTS 5.1 1536 kbps
Язык                             : Russian

Аудио #4
Идентификатор                    : 5
Формат                           : DTS
Формат/Информация                : Digital Theater Systems
Идентификатор кодека             : A_DTS
Продолжительность                : 1 ч. 48 м.
Вид битрейта                     : Постоянный
Битрейт                          : 1510 Кбит/сек
Канал(ы)                         : 6 канала(ов)
Расположение каналов             : Front: L C R, Side: L R, LFE
Частота                          : 48,0 КГц
Битовая глубина                  : 24 бит
Метод сжатия                     : С потерями
Размер потока                    : 1,14 Гбайт (11%)
Заголовок                        : DTS 5.1 1536 kbps
Язык                             : English

Текст #1
Идентификатор                    : 6
Формат                           : UTF-8
Идентификатор кодека             : S_TEXT/UTF8
Идентификатор кодека/Информация  : UTF-8 Plain Text
Заголовок                        : Tycoon
Язык                             : Russian

Текст #2
Идентификатор                    : 7
Формат                           : UTF-8
Идентификатор кодека             : S_TEXT/UTF8
Идентификатор кодека/Информация  : UTF-8 Plain Text
Заголовок                        : Goblin
Язык                             : Russian

Текст #3
Идентификатор                    : 8
Формат                           : UTF-8
Идентификатор кодека             : S_TEXT/UTF8
Идентификатор кодека/Информация  : UTF-8 Plain Text
Язык                             : English
Свернуть
"Знаете ли Вы, что..."
  • Гигантское деревянное распятие в начальной сцене на самом деле было сделано из пенопласта, а затем окрашено под цвет дерева.
  • Различные роли в фильме могли исполнить Патрик Суэйзи, Стивен Дорфф и Роберт Де Ниро.
  • Название фильма идентично названию группы Троя Даффи (сценарист и режиссер).
  • Троя Даффи и практически весь состав его группы можно заметить в сцене в ирландском пабе.
  • За фильм слово «fuck» произносится 246 раз.
  • Во время перестрелки с братьями Иль Дучи использует шесть пистолетов: первые два – Beretta 92S и 80 series Springfield 1911, револьверы - Smith & Wesson .357 Magnum, последние два - Colt 70.
  • Персонажа ‘Дэвид Делла Рокко’ зовут точно так же как и актера, его сыгравшего. Данная роль была специально написано для Рокко.
  • Изначально Анабелла МакМанус (мать братьев) должна была присутствовать в фильме. Но все сцены с её участием были удалены. Мы также должны были слышать её закадровый голос в некоторых сценах.
  • Полное имя детектива Долли – Доллапоппаскалиос.
  • В «Бункере греха» (Sin Bin) Коннор, обращаясь к одной из жертв, говорит: «Я ждал его». Данный комментарий должен был ссылаться на удаленную сцену в больнице, в которой Мёрфи и Коннор видят, как сутенер избивает проститутку. Последняя жертва в данном заведении - наркодилер, которому также посвящена одна из удаленных сцен.
  • Изначально Иль Дуче должны были звать Даркмэн.
  • Кевин Спейси был первоначальным выбором создателей на роль Пола Смекера.
  • Церковь, где Коннор и Мёрфи присутствуют на литургии, - это не католическая, а протестантская церковь. Ни одна из католических церквей, к которым обращались создатели, из-за сюжета фильма не дала разрешения на съёмки внутри здания.
  • Съёмки фильма заняли 32 дня.
  • Ария, которая играет во время расследования убийства двух русских, взята из оперы Пуччини «La Bohem». Название арии – «Si, mi chiamano Mimi».
  • Релиз фильма был существенно задержан из-за расстрела школьников в одной из школ Колумбины.
  • Тюремный номер Иль Дуче, 6570534, - это старый телефонный номер Троя Даффи.
  • «Boondock» с английского языка переводится как «трущобы», само же действо фильма происходит в Бостоне.
Свернуть
Скриншоты

Изображение
Изображение
Изображение
Изображение
Изображение
Свернуть
Оформлено by Евгений Лебедев
Не в сети
Профиль  
Начать новую темуОтветить на тему  [ 1 сообщение ] 
Вы не можете начинать темы
Вы не можете отвечать на сообщения
Вы не можете редактировать свои сообщения
Вы не можете удалять свои сообщения