Правила форума

  • В этом разделе создание новых тем Запрещено.
  • Для создания новых тем пользуйтесь Корневым разделом DVD и HD фильмы.
Начать новую темуОтветить на тему  [ Сообщений: 5 ] 
Торрент файл
Размер: 9.97 GB • Зарегистрирован: 3 года 5 месяцев • Статус: Проверено
Скачан: 228 раз • Желающих скачать: 0 • Поблагодарили: 38 раз
 Раздают: 1  |  0 KB/s  ]   Качают: 0  |  0 KB/s  ] 
Сообщения
 Добавлено: 2013-06-11 18:31
Аватара пользователя
Стаж: 9 лет 1 месяц
Сообщений: 8114
Спасибок: 122347
Лайков: 1196
Тачка №19 / Vehicle 19

«Он выбрал не ту тачку. Они нарвались не на того парня»

Изображение


Год выпуска: 2013
Страна: Изображение США Изображение ЮАР
Жанр: боевик, триллер, криминал, драма
Продолжительность: 01:25:10
Субтитры: Русские, английские
Перевод: Профессиональный (полное дублирование) [Лицензия]


Режиссер: Мукунда Майкл Дьюил
Сценарий: Мукунда Майкл Дьюил
Продюсер: Райан Хайдариан, Питер Сафран, Уэйн Марк Годфри
Оператор: Майлз Гудолл
Композитор: Дэниэл Матти, Джеймс Маттес

В ролях: Пол Уокер, Наима МакЛин, Ги Де Виллерс, Лэйла Хайдариан, Тшепо Масеко, Андриан Мазив, Велиль Нзуза, Мангалисо Нгема, Эрнест Кубайи, Элиз Ван Никерк

Описание: Что делать, если из багажника арендованной в незнакомом городе тачки в салон вываливается связанная девушка? Сдать бедолагу в ближайший полицейский участок? Спасибо, Кэп, но не всё так просто! Эта девушка — важный свидетель в большом заговоре, и её уже приговорили к смерти… На хвосте висят все копы города, выход один — вдавить педаль газа в пол и считать дырки от пуль и разбитые полицейские машины! Гонки на выживание начинаются!

Изображение Изображение

Релиз группы: Изображение Раздача группы: Изображение

Качество: BDRip (1080p)
Формат: Matroska
Видео: MPEG-4 AVC, 13,4 Мбит/с, 1920x800
Аудио №1: Русский (DTS, 48,0 КГц, 6 ch, 1510 Кбит/c)
Аудио №2: Английский (DTS, 48,0 КГц, 6 ch, 1510 Кбит/c)

MediaInfo
Общее
Уникальный идентификатор : 216803218839648461819168356499699070186 (0xA31AC7F77FB08647BA18EDDEFB3CF4EA)
Полное имя : C:\Фильмы\Vehicle.19.2013.D.BDRip.1080p.R.G.Daredevil.mkv
Формат : Matroska
Версия формата : Version 2
Размер файла : 9,97 Гбайт
Продолжительность : 1 ч. 25 м.
Общий поток : 16,8 Мбит/сек
Название фильма : IRONCLUB
Дата кодирования : UTC 2013-06-11 13:04:51
Программа кодирования : mkvmerge v5.2.0 ('I can't explain') built on Dec 18 2011 18:12:03
Библиотека кодирования : libebml v1.2.3 + libmatroska v1.3.0

Видео
Идентификатор : 1
Формат : AVC
Формат/Информация : Advanced Video Codec
Профиль формата : High@L4.1
Параметр CABAC формата : Да
Параметр ReFrames формата : 5 кадров
Идентификатор кодека : V_MPEG4/ISO/AVC
Продолжительность : 1 ч. 25 м.
Битрейт : 13,4 Мбит/сек
Ширина : 1920 пикселей
Высота : 800 пикселей
Соотношение сторон : 2,40:1
Режим частоты кадров : Постоянный
Частота кадров : 23,976 кадра/сек
Цветовое пространство : YUV
Субдискретизация насыщенности : 4:2:0
Битовая глубина : 8 бит
Тип развёртки : Прогрессивная
Бит/(Пиксели*Кадры) : 0.364
Размер потока : 7,97 Гбайт (80%)
Заголовок : Vehicle.19.2013.1080p.BluRay.DTS.x264-HDWinG
Библиотека кодирования : x264 core 130 r2274+704+40 24c804d tMod+MixAQ [8-bit@4:2:0 X86_64]
Настройки программы : cabac=1 / ref=5 / deblock=1:-3:-3 / analyse=0x3:0x113 / me=umh / subme=11 / psy=1 / fade_compensate=0.00 / psy_rd=1.05:0.00 / mixed_ref=1 / me_range=48 / chroma_me=1 / trellis=2 / 8x8dct=1 / cqm=0 / deadzone=21,11 / fast_pskip=0 / chroma_qp_offset=-2 / threads=36 / lookahead_threads=6 / sliced_threads=0 / nr=0 / decimate=0 / interlaced=0 / bluray_compat=0 / constrained_intra=0 / fgo=0 / bframes=8 / b_pyramid=2 / b_adapt=2 / b_bias=0 / direct=3 / weightb=1 / open_gop=0 / weightp=2 / keyint=240 / keyint_min=24 / scenecut=40 / intra_refresh=0 / rc=crf / mbtree=0 / crf=17.2000 / qcomp=0.72 / qpmin=0 / qpmax=69 / qpstep=4 / ip_ratio=1.25 / pb_ratio=1.20 / aq=4:0.80 / aq-sensitivity=10.00 / aq-ifactor=1.00 / aq-pfactor=1.00 / aq-bfactor=1.00 / aq2=0
Язык : English
Default : Да
Forced : Да

Аудио #1
Идентификатор : 2
Формат : DTS
Формат/Информация : Digital Theater Systems
Режим : 16
Параметр Endianness формата : Big
Идентификатор кодека : A_DTS
Продолжительность : 1 ч. 25 м.
Вид битрейта : Постоянный
Битрейт : 1510 Кбит/сек
Каналы : 6 каналов
Расположение каналов : Front: L C R, Side: L R, LFE
Частота : 48,0 КГц
Битовая глубина : 16 бит
Метод сжатия : С потерями
Размер потока : 920 Мбайт (9%)
Заголовок : DTS 5.1 @ 1536 kbps - Dub, BD RUS
Язык : Russian
Default : Да
Forced : Да

Аудио #2
Идентификатор : 3
Формат : DTS
Формат/Информация : Digital Theater Systems
Режим : 16
Параметр Endianness формата : Big
Идентификатор кодека : A_DTS
Продолжительность : 1 ч. 25 м.
Вид битрейта : Постоянный
Битрейт : 1509 Кбит/сек
Каналы : 6 каналов
Расположение каналов : Front: L C R, Side: L R, LFE
Частота : 48,0 КГц
Битовая глубина : 24 бит
Метод сжатия : С потерями
Размер потока : 919 Мбайт (9%)
Заголовок : DTS 5.1 @ 1536 kbps
Язык : English
Default : Нет
Forced : Нет

Текст #1
Идентификатор : 4
Формат : UTF-8
Идентификатор кодека : S_TEXT/UTF8
Идентификатор кодека/Информация : UTF-8 Plain Text
Заголовок : voronine
Язык : Russian
Default : Нет
Forced : Нет

Текст #2
Идентификатор : 5
Формат : UTF-8
Идентификатор кодека : S_TEXT/UTF8
Идентификатор кодека/Информация : UTF-8 Plain Text
Заголовок : Full
Язык : English
Default : Нет
Forced : Нет

Меню
00:00:00.000 : en:00:00:00.000
00:05:49.224 : en:00:05:49.224
00:12:37.882 : en:00:12:37.882
00:24:17.956 : en:00:24:17.956
00:33:50.487 : en:00:33:50.487
00:44:55.484 : en:00:44:55.484
00:52:17.551 : en:00:52:17.551
00:59:34.529 : en:00:59:34.529
01:04:45.507 : en:01:04:45.507
01:07:53.236 : en:01:07:53.236
01:13:05.298 : en:01:13:05.298
01:20:07.136 : en:01:20:07.136
Свернуть
Скриншоты
Изображение
Изображение
Изображение
Изображение
Свернуть
В сети
Профиль  
 Добавлено: 2013-06-13 23:28 (спустя 2 дня 4 часа)
Аватара пользователя
Стаж: 8 лет 3 месяца
Сообщений: 20
Редкостное фуфло... Смотреть только под бухло... и то наверно стошнит ;;-)))
Не в сети
Профиль  
 Добавлено: 2013-06-22 23:08 (спустя 8 дней)
Стаж: 7 лет 8 месяцев
Сообщений: 8
скриншоты супер :sh_ok:
Не в сети
Профиль  
 Добавлено: 2013-06-27 20:52 (спустя 4 дня)
Стаж: 8 лет 3 месяца
Сообщений: 36
Спасибок: 12

Александрсергеевич:

скриншоты супер :sh_ok:
спс, поржал ;;-)))
Не в сети
Профиль  
 Добавлено: 2014-10-17 21:31 (спустя 1 год 3 месяца)
Пользователь забанен
Аватара пользователя
Стаж: 7 лет 9 месяцев
Возраст: 24
Сообщений: 72
Раздайте пожалуйста)
Не в сети
Профиль  
Начать новую темуОтветить на тему  [ Сообщений: 5 ] 
Вы не можете начинать темы
Вы не можете отвечать на сообщения
Вы не можете редактировать свои сообщения
Вы не можете удалять свои сообщения