Правила форума

  • В этом разделе создание новых тем Запрещено.
  • Для создания новых тем пользуйтесь Корневым разделом DVD и HD фильмы.
Начать новую темуОтветить на тему  [ 1 сообщение ] 
Торрент файл
Размер: 12.28 GB • Зарегистрирован: 5 лет 10 месяцев • Статус: Проверено
Скачан: 19 раз • Желающих скачать: 0 • Поблагодарили: 5 раз
 Раздают: 0  |  0 KB/s  ]   Качают: 0  |  0 KB/s  ] 
 Полного источника не было 3 года 2 месяца 
Сообщения
 Добавлено: 2011-01-26 16:10
Top-releaser
Аватара пользователя
Стаж: 6 лет 11 месяцев
Возраст: 45
Сообщений: 299
Спасибок: 4106
Лайков: 3
Так себе каникулы / Old Dogs
«Sit. Stay. Play Dad.»

Изображение

Год выпуска: 2009
Страна: США
Жанр: комедия, семейный
Продолжительность: 01:28:10
Перевод: Профессиональный (полное дублирование)

Режиссер: Уолт Бекер / Walt Becker
Сценарий: Дэвид Даймонд / David Diamond, Дэвид Вайсман / David Weissman
Продюсер: Питер Абрамс / Peter Abrams, Энсон Даунс / Anson Downes, Линда Фавила / Linda Favila, Гаррет Грант / Garrett Grant, Келли Хэйес / Kelly Hayes
Оператор: Джефри Л. Кимбалл / Jeffrey L. Kimball
Композитор: Джон Дебни / John Debney

В ролях: Джон Траволта (Charlie), Робин Уильямс (Dan), Келли Престон (Vicki), Коннер Рэйберн (Zach), Элла Блю Траволта (Emily), Лори Лафлин (Amanda), Сет Грин (Craig), Берни Мак (Jimmy Lunchbox), Мэтт Диллон (Barry), Энн-Маргрет (Martha), Рита Уилсон (Jenna), Эми Седарис (Condo Woman)
Описание: Двое старых приятелей и деловых партнеров внезапно оказываются в ситуации, когда им приходится заняться воспитанием двух шумных близнецов-семилеток. Более того, переполох не ограничивается домашними заботами. Детишек надо еще вывезти отдыхать в летний лагерь, а там и близняшки, и их опекуны оказываются во власти придирчивого вожатого - и все это накануне важной сделки, от которой зависит будущее предприятия горе-опекунов. Справятся ли закоренелые холостяки с этой непростой ситуацией?

Изображение
Бюджет: $35 000 000
Сборы в США: $49 492 060
Сборы в России: $5 362 678
Сборы в мире: $96 281 060
Мировая премьера: 25 ноября 2009
Релиз на DVD: 18 мая 2010, «Уолт Дисней Компани СНГ»
Изображение

MPAA: Изображение - Рекомендуется присутствие родителей
Качество: BDRip, 1080p
Формат: Matroska
Видео: AVC; 1920x1036 (1.853); 17586 Kbps; 23,976 fps; 0,369 bpp
Аудио №1: Russian; AC3; 48 KHz; 448 Kbps; CBR; 6 ch; [Профессиональный (полное дублирование)]
Аудио №2: English; DTS; 48 KHz; 1509 Kbps; CBR; 6 ch; 24 bit; [Original]
Субтитры №1: Russian
Субтитры №2: English
Субтитры №3: Turkish
Субтитры №4: Dutch
Субтитры №5: Hebrew
Субтитры №6: Polish
Субтитры №7: Portuguese
Субтитры №8: Romanian

Раздача группы:Изображение

"MediaInfo"

Общее
Уникальный идентификатор : 222304540386010067001020769653047373621 (0xA73E4C0F6B1B1627B03E3E5DB5432F35)
Полное имя : J:\Torrents\Tak.sebe.kanikuly.2009.x264.BDRip.1080p.[R.G.Daredevil].mkv
Формат : Matroska
Размер файла : 12,3 Гбайт
Продолжительность : 1 ч. 28 м.
Общий поток : 19,9 Мбит/сек
Название фильма : --SCHUMAHER--
Дата кодирования : UTC 2010-05-09 07:44:19
Программа кодирования : mkvmerge v2.1.0 ('Another Place To Fall') built on Aug 19 2007 13:40:07
Библиотека кодирования : libebml v0.7.7 + libmatroska v0.8.1

Видео
Идентификатор : 1
Формат : AVC
Формат/Информация : Advanced Video Codec
Профиль формата : High@L4.1
Параметр CABAC формата : Да
Параметр ReFrames формата : 4 кадры
Идентификатор кодека : V_MPEG4/ISO/AVC
Продолжительность : 1 ч. 28 м.
Битрейт : 18,0 Мбит/сек
Ширина : 1920 пикс.
Высота : 1036 пикс.
Соотношение сторон : 1,853
Частота кадров : 23,976 кадр/сек
Цветовое пространство : YUV
Подвыборка цветности : 4:2:0
Битовая глубина : 8 бит
Тип развёртки : Прогрессивная
Бит/(Пиксели*Кадры) : 0.377
Размер потока : 10,8 Гбайт (88%)
Библиотека кодирования : x264 core 85 r1442kGIT 781d300
Настройки программы : cabac=1 / ref=4 / deblock=1:-3:-3 / analyse=0x3:0x113 / me=umh / subme=10 / psy=1 / psy_rd=1.00:0.00 / mixed_ref=1 / me_range=64 / chroma_me=1 / trellis=2 / 8x8dct=1 / cqm=2 / deadzone=21,11 / fast_pskip=1 / chroma_qp_offset=-4 / threads=6 / sliced_threads=0 / nr=0 / decimate=1 / mbaff=0 / interlaced=0 / constrained_intra=0 / bframes=10 / b_pyramid=0 / b_adapt=2 / b_bias=0 / direct=3 / wpredb=1 / wpredp=2 / keyint=250 / keyint_min=25 / scenecut=40 / intra_refresh=0 / rc_lookahead=40 / rc=2pass / mbtree=1 / bitrate=18000 / ratetol=1.0 / qcomp=0.60 / qpmin=10 / qpmax=51 / qpstep=4 / cplxblur=20.0 / qblur=0.5 / vbv_maxrate=38000 / vbv_bufsize=30000 / ip_ratio=1.40 / aq=1:0.90 / pulldown=0 / nal_hrd=0
Язык : English

Аудио #1
Идентификатор : 2
Формат : AC-3
Формат/Информация : Audio Coding 3
Расширение режима : CM (complete main)
Идентификатор кодека : A_AC3
Продолжительность : 1 ч. 28 м.
Вид битрейта : Постоянный
Битрейт : 448 Кбит/сек
Канал(ы) : 6 канала(ов)
Расположение каналов : Front: L C R, Side: L R, LFE
Частота : 48,0 КГц
Битовая глубина : 16 бит
Метод сжатия : С потерями
Задержка видео : 1 с. 0 мс.
Размер потока : 283 Мбайт (2%)
Язык : Russian

Аудио #2
Идентификатор : 3
Формат : DTS
Формат/Информация : Digital Theater Systems
Идентификатор кодека : A_DTS
Продолжительность : 1 ч. 28 м.
Вид битрейта : Постоянный
Битрейт : 1510 Кбит/сек
Канал(ы) : 6 канала(ов)
Расположение каналов : Front: L C R, Side: L R, LFE
Частота : 48,0 КГц
Битовая глубина : 24 бит
Метод сжатия : С потерями
Размер потока : 952 Мбайт (8%)
Язык : English

Текст #1
Идентификатор : 4
Формат : UTF-8
Идентификатор кодека : S_TEXT/UTF8
Идентификатор кодека/Информация : UTF-8 Plain Text
Язык : Russian

Текст #2
Идентификатор : 5
Формат : UTF-8
Идентификатор кодека : S_TEXT/UTF8
Идентификатор кодека/Информация : UTF-8 Plain Text
Язык : English

Текст #3
Идентификатор : 6
Формат : UTF-8
Идентификатор кодека : S_TEXT/UTF8
Идентификатор кодека/Информация : UTF-8 Plain Text
Язык : Turkish

Текст #4
Идентификатор : 7
Формат : UTF-8
Идентификатор кодека : S_TEXT/UTF8
Идентификатор кодека/Информация : UTF-8 Plain Text
Язык : Dutch

Текст #5
Идентификатор : 8
Формат : UTF-8
Идентификатор кодека : S_TEXT/UTF8
Идентификатор кодека/Информация : UTF-8 Plain Text
Язык : Hebrew

Текст #6
Идентификатор : 9
Формат : UTF-8
Идентификатор кодека : S_TEXT/UTF8
Идентификатор кодека/Информация : UTF-8 Plain Text
Язык : Polish

Текст #7
Идентификатор : 10
Формат : UTF-8
Идентификатор кодека : S_TEXT/UTF8
Идентификатор кодека/Информация : UTF-8 Plain Text
Язык : Portuguese

Текст #8
Идентификатор : 11
Формат : UTF-8
Идентификатор кодека : S_TEXT/UTF8
Идентификатор кодека/Информация : UTF-8 Plain Text
Язык : Romanian

Меню
00:00:00.000 : en:1. Pictures/Main Title [:00]
00:03:26.164 : en:2. The Miama Story [:00]
00:08:41.938 : en:3. You're So Tam! [:00]
00:12:38.007 : en:4. Daddy! [:02]
00:18:50.755 : en:5. I'll Take the Kids [:00]
00:23:48.260 : en:6. Grandparents Club [:00]
00:25:38.537 : en:7. Moving In With Charlie! [3:24]
00:31:09.117 : en:8. Child-Proofing [5:15]
00:33:35.722 : en:9. Let's Go Camping [3:56]
00:37:25.368 : en:10. Ultimate Frisbee [6:12]
00:39:45.466 : en:11. Remember Where They Go? [4:57]
00:44:01.264 : en:12. The Golf Game [1:50]
00:50:10.007 : en:13. I Need Help [5:30]
00:51:54.194 : en:14. The Human Puppet [2:26]
00:56:31.805 : en:15. Breakthrough! [3:49]
01:02:20.153 : en:16. Dan's Choice [2:20]
01:07:29.128 : en:17. Changes [4:15]
01:13:36.912 : en:18. Apology/Get Them Back! [6:08]
01:16:36.717 : en:19. Superhero! [1:44]
01:22:52.885 : en:20. One Year Later/End Credits [4:37]
Свернуть
Изображение
"Скриншоты"

Изображение
Изображение
Изображение
Изображение
Изображение
Изображение
Изображение
Изображение
Свернуть
"Знаете ли Вы, что..."
  • Большинство сцен фильма были сняты в штате Калифорния, а также в Нью-Йорке.
  • «Так себе каникулы» это последний фильм Берни Мака, скончавшегося 9 августа 2008 года
  • Первоначально премьера картины планировалась на 10 апреля 2009 года, но после смерти Берни Мака киностудия приняла решение отложить выход в прокат более чем на полгода.
Свернуть
Не в сети
Профиль  
Начать новую темуОтветить на тему  [ 1 сообщение ] 
Вы не можете начинать темы
Вы не можете отвечать на сообщения
Вы не можете редактировать свои сообщения
Вы не можете удалять свои сообщения