Правила форума

  • В этом разделе создание новых тем Запрещено.
  • Для создания новых тем пользуйтесь Корневым разделом DVD и HD фильмы.
Начать новую темуОтветить на тему  [ Сообщений: 4 ] 
Торрент файл
Размер: 5.76 GB • Зарегистрирован: 5 лет 1 месяц • Статус: Проверено
Скачан: 128 раз • Желающих скачать: 0 • Поблагодарили: 13 раз
 Раздают: 0  |  0 KB/s  ]   Качают: 0  |  0 KB/s  ] 
 Полного источника не было 3 года 
Сообщения
 Добавлено: 2011-10-19 16:03
Top-releaser
Аватара пользователя
Стаж: 8 лет 9 месяцев
Сообщений: 479
Спасибок: 20187
Лайков: 16
Таможня дает добро

Rien à déclarer


«Бельгийские вафли vs. лягушачьи лапки»

Изображение


Год выпуска: 2010
Страна: Изображение Франция; Les Productions du Ch'timi
Жанр: Комедия
Продолжительность: 01:48:18
Перевод: Профессиональный (дублированный) + Оригинальная дорожка
Субтитры: Русские, украинские


Режиссёр: Дэни Бун / Dany Boon

В ролях: Бенуа Пульворд, Дэни Бун, Джули Бернард, Карин Виар, Франсуа Дамиенс, Боли Ланнерс, Оливье Гурме, Мишель Вюйермоз

Описание: История двух недотеп-таможенников, француза и бельгийца. Не испытывая особой приязни друг к другу, они, тем не менее, вынуждены стать напарниками и принимать участие в рискованной операции…


Качество: BDRip 720p R5
Формат: MKV

Видео: AVC, 1280x546 (2.344) at 24,000 fps, 5717 kb/s

Аудио 1: AC3, 384 Кбит/сек, 6 канала(ов), 48,0 КГц (Дубляж)
Аудио 2: DTS, 1510, 6 канала(ов), 48,0 КГц (Оригинал)
Раздача: Изображение


Изображение

Изображение
MediaInfo

Общее
Уникальный идентификатор : 249547788633874278011812955264419742848 (0xBBBD27E7007D9A3FB1270CF5BF11C480)
Полное имя : C:\Users\Домашний\Desktop\Tamosznja daet dobro. 2010 BDRip.720p.[nntt].mkv
Формат : Matroska
Размер файла : 5,76 Гбайт
Продолжительность : 1 ч. 48 м.
Общий поток : 7614 Кбит/сек
Дата кодирования : UTC 2011-10-19 05:01:24
Программа кодирования : mkvmerge v2.4.1 ('Use Me') built on Dec 5 2008 18:30:05
Библиотека кодирования : libebml v0.7.7 + libmatroska v0.8.1

Видео
Идентификатор : 1
Формат : AVC
Формат/Информация : Advanced Video Codec
Профиль формата : High@L4.1
Параметр CABAC формата : Да
Параметр ReFrames формата : 9 кадры
Идентификатор кодека : V_MPEG4/ISO/AVC
Продолжительность : 1 ч. 48 м.
Битрейт : 5717 Кбит/сек
Ширина : 1280 пикс.
Высота : 546 пикс.
Соотношение сторон : 2,35:1
Частота кадров : 24,000 кадр/сек
Цветовое пространство : YUV
Подвыборка цветности : 4:2:0
Битовая глубина : 8 бит
Тип развёртки : Прогрессивная
Бит/(Пиксели*Кадры) : 0.341
Размер потока : 4,21 Гбайт (73%)
Заголовок : HDChina
Библиотека кодирования : x264 core 115 r1995 c1e60b9
Настройки программы : cabac=1 / ref=9 / deblock=1:-3:-3 / analyse=0x3:0x133 / me=umh / subme=10 / psy=1 / psy_rd=1.00:0.00 / mixed_ref=1 / me_range=32 / chroma_me=1 / trellis=2 / 8x8dct=1 / cqm=0 / deadzone=21,11 / fast_pskip=0 / chroma_qp_offset=-2 / threads=12 / sliced_threads=0 / nr=0 / decimate=0 / interlaced=0 / bluray_compat=0 / constrained_intra=0 / bframes=8 / b_pyramid=2 / b_adapt=2 / b_bias=0 / direct=3 / weightb=1 / open_gop=0 / weightp=2 / keyint=250 / keyint_min=24 / scenecut=40 / intra_refresh=0 / rc_lookahead=60 / rc=2pass / mbtree=1 / bitrate=5717 / ratetol=1.0 / qcomp=0.60 / qpmin=0 / qpmax=69 / qpstep=4 / cplxblur=20.0 / qblur=0.5 / ip_ratio=1.40 / aq=1:1.00
Язык : English

Аудио #1
Идентификатор : 2
Формат : AC-3
Формат/Информация : Audio Coding 3
Расширение режима : CM (complete main)
Идентификатор кодека : A_AC3
Продолжительность : 1 ч. 48 м.
Вид битрейта : Постоянный
Битрейт : 384 Кбит/сек
Канал(ы) : 6 канала(ов)
Расположение каналов : Front: L C R, Side: L R, LFE
Частота : 48,0 КГц
Битовая глубина : 16 бит
Метод сжатия : С потерями
Размер потока : 298 Мбайт (5%)
Заголовок : Дубляж R5 AC3/5.1 384 kbps
Язык : Russian

Аудио #2
Идентификатор : 3
Формат : DTS
Формат/Информация : Digital Theater Systems
Идентификатор кодека : A_DTS
Продолжительность : 1 ч. 48 м.
Вид битрейта : Постоянный
Битрейт : 1510 Кбит/сек
Канал(ы) : 6 канала(ов)
Расположение каналов : Front: L C R, Side: L R, LFE
Частота : 48,0 КГц
Битовая глубина : 24 бит
Метод сжатия : С потерями
Размер потока : 1,14 Гбайт (20%)
Заголовок : Оригинал DTS 1536 kbps
Язык : French

Текст
Идентификатор : 4
Формат : UTF-8
Идентификатор кодека : S_TEXT/UTF8
Идентификатор кодека/Информация : UTF-8 Plain Text
Заголовок : Субтитры R5
Язык : Russian

Свернуть
Скриншоты
Изображение
Изображение
Изображение
Изображение
Изображение
Свернуть
_________________
Изображение
Изображение
Не в сети
Профиль  
 Добавлено: 2011-10-27 00:02 (спустя 7 дней)
Аватара пользователя
Стаж: 7 лет 1 месяц
Сообщений: 333
Спасибок: 989
Лайков: 9
Добрый фильм, ожидал большего, но всеравно понравился.
Любителям французкого кинематогрофа.
Не в сети
Профиль  
 Добавлено: 2011-10-27 12:28 (спустя 12 часов)
Кинокомментатор
Аватара пользователя
Стаж: 9 лет 1 месяц
Сообщений: 1332
Лайков: 54
это фильм о том, что у кого чего болит, тот о том и говорит:) америкосы снимают Гетто (мульт) в котором через слово слово "нигер", "нига" и тд и тп... а тут походу во франции и бельгии существует недолюбовь какая то:) вот она про проблемы "там" и снимают!) Бобро поржаловать, помоему тоже из той местности фильм:) но в принципе кино хорошее) доброе) лёгкое!) высмеивает какие то глупости национальные и человеческие :) мне понравилось:) ну 7 балов, не больше!)
_________________
Я ВКонтакте
Не в сети
Профиль  
 Добавлено: 2011-10-27 13:23 (спустя 55 минут)
Top-seeder
Аватара пользователя
Стаж: 7 лет 10 месяцев
Сообщений: 170
Спасибок: 1379
Лайков: 1
Французский бред...Жаль потраченного времени . :(
Не в сети
Профиль  
Начать новую темуОтветить на тему  [ Сообщений: 4 ] 
Вы не можете начинать темы
Вы не можете отвечать на сообщения
Вы не можете редактировать свои сообщения
Вы не можете удалять свои сообщения